Страница 1 из 2 12 ПоследняяПоследняя
Показано с 1 по 10 из 18

Тема: Acoustic Alchemy

  1. #1
    Супер модератор Array Аватар для aheron
    Регистрация
    11.06.2018
    Сообщений
    214
    Сказал(а) спасибо
    2,145
    Поблагодарили 1,066 раз(а)
    в 168 сообщениях
    Онлайн
    3 Дней 15 ч 53 мин 35 сек
    В среднем
    1 мин 46 сек

    Acoustic Alchemy






    Acoustic Alchemy — современная инструментальная джазовая группа. Создана в Англии в 1981 году двумя гитаристами с классическим музыкальным образованием: Ником Уэббом (англ. Nick Webb), игравшим на гитаре с металлическими струнами, и Саймоном Джеймсом (англ. Simon James), игравшим на нейлоновых струнах. После ухода Джеймса Уэбб объединился с гитаристом Грегом Кармайклом (англ. Greg Carmichael) — именно этот дуэт составил ядро Acoustic Alchemy на следующие годы. С 1998 года место Ника Уэбба занимает Майлз Джилдердейл (англ. Miles Gilderdale). Acoustic Alchemy до реорганизации в 2000 году не имела постоянного состава, единственной неизменной частью группы, её ядром всегда был лишь дуэт Ника Уэбба (гитара с металлическими струнами) и Грега Кармайкла (гитара с нейлоновыми струнами). Они являлись авторами и аранжировщиками всех композиций группы. Остальные музыканты — электрогитаристы, басисты, ударники, клавишники, перкуссионисты — фактически являлись сессионными и привлекались лишь для записи альбомов. Однако наиболее часто с группой сотрудничали Джон Парсонс (электрогитара, также иногда исполнял партии акустической гитары); барабанщики Берт Смаак (5 классических альбомов), Дэн Томлинсон (англ. Dan Tomlinson) и Джон Шеппард (англ. John Sheppard) (оба по 2 альбома); клавишники Райнер Брюнингхаус (англ. Rainer Bruninghaus) (5 классических альбомов) и Терри Дислей (англ. Terry Disley) (4 альбома). Басисты менялись часто, два последних альбома до 1998 года с группой записал Деннис Мёрфи (англ. Dennis Murphy). Бессменным перкуссионистом, начиная с первого альбома, был Марио Аргандона. После смерти Ника Уэбба его место в дуэте занял Майлз Джирделдейл, который на альбомах начиная с The Beautiful Game (2000) стал также исполнять партии электрогитары. Кроме того, после возобновления деятельности группы она обрела более-менее постоянный состав музыкантов: Грег Кармайкл (гитара с нейлоновыми струнами), Майлз Джирделдейл (гитара с металлическими струнами и электрогитара), Энтони Уайт (клавишные) и Фрэнк Феликс (бас). Этот состав записал 5 альбомов (2000—2005). Место барабанщика до 2003 года оставалось по-прежнему за сессионными музыкантами, которые сменялись от альбома к альбому, однако начиная с альбома Radio Contact за ударной установкой находится Грег Грейнджер (англ. Greg Grainger (правда, периодически в качестве сессионного привлекается ещё и Берт Смаак). После ухода в 2007 году начавшего сольную карьеру Фрэнка Феликса его место на басу занял Джулиан Крэмптон (англ. Julian Crampton). В таком составе Acoustic Alchemy и существует по сей день.
    Девиз группы — «Лучшая музыка для лучшей жизни».

  2. 10 пользователя(ей) сказали cпасибо:

    Coroed (11.07.2018), iFF65 (06.08.2018), kalach (24.07.2018), Lupus (18.10.2018), Puharik (11.07.2018), Riddler (10.07.2018), salimabi (10.07.2018), Shuravi (21.07.2018), vlad56 (10.07.2018), Елизавета (18.07.2018)

  3. #2
    Супер модератор Array Аватар для aheron
    Регистрация
    11.06.2018
    Сообщений
    214
    Сказал(а) спасибо
    2,145
    Поблагодарили 1,066 раз(а)
    в 168 сообщениях
    Онлайн
    3 Дней 15 ч 53 мин 35 сек
    В среднем
    1 мин 46 сек
    Acoustic Alchemy - Aart (2001)





    Performer: Acoustic Alchemy
    Album: Aart
    Label: Higher Octave Music. Made in US.
    Catalog #: HOMCD 11103
    Style: Smooth Jazz
    Year: 2001
    Format: FLAC (image + .cue)
    Bitrate: lossless
    Covers: in archive
    Amount of tracks: 14
    Size ZIP: ~ 418 mb

    ••• Tracklist •••

    01. Acoustic Alchemy - Wish You Were Near [4:05]
    02. Acoustic Alchemy - Aart Attack [4:01]
    03. Acoustic Alchemy - Flamoco Loco [4:05]
    04. Acoustic Alchemy - Tuff Puzzle [5:15]
    05. Acoustic Alchemy - Passion Play [4:46]
    06. Acoustic Alchemy - Senjo Wine [4:33]
    07. Acoustic Alchemy - Viva Che [3:44]
    08. Acoustic Alchemy - The Velvet Swing [5:36]
    09. Acoustic Alchemy - Robbie's Revenge [4:10]
    10. Acoustic Alchemy - Love At A Distance [4:15]
    11. Acoustic Alchemy - Code Name Pandora [5:10]
    12. Acoustic Alchemy - Nathan Road [5:08]
    13. Acoustic Alchemy - Cactus Blue [4:56]
    14. Acoustic Alchemy - The Wind Of Change [2:34]
    --------------------------
    Total time: [01:02:18]
    [свернуть]

    ••• Log EAC + Log auCDtect + Dynamic Range Meter + Spectrum •••

    Exact Audio Copy V0.99 prebeta 5 from 4. May 2009

    EAC extraction logfile from 4. December 2009, 21:38

    Acoustic Alchemy / Aart

    Used drive : HL-DT-STDVDRAM GH22NS50 Adapter: 3 ID: 1

    Read mode : Secure
    Utilize accurate stream : Yes
    Defeat audio cache : Yes
    Make use of C2 pointers : No

    Read offset correction : 667
    Overread into Lead-In and Lead-Out : No
    Fill up missing offset samples with silence : Yes
    Delete leading and trailing silent blocks : No
    Null samples used in CRC calculations : Yes
    Used interface : Installed external ASPI interface

    Used output format : User Defined Encoder
    Selected bitrate : 128 kBit/s
    Quality : High
    Add ID3 tag : No
    Command line compressor : D:\Tools\Codecs\WavPack Frontend 2.0\wavpack.exe
    Additional command line options : -h %s %d


    TOC of the extracted CD

    Track | Start | Length | Start sector | End sector
    ---------------------------------------------------------
    1 | 0:00.00 | 4:05.00 | 0 | 18374
    2 | 4:05.00 | 4:01.20 | 18375 | 36469
    3 | 8:06.20 | 4:05.00 | 36470 | 54844
    4 | 12:11.20 | 5:14.50 | 54845 | 78444
    5 | 17:25.70 | 4:46.20 | 78445 | 99914
    6 | 22:12.15 | 4:33.00 | 99915 | 120389
    7 | 26:45.15 | 3:44.20 | 120390 | 137209
    8 | 30:29.35 | 5:36.00 | 137210 | 162409
    9 | 36:05.35 | 4:10.00 | 162410 | 181159
    10 | 40:15.35 | 4:14.50 | 181160 | 200259
    11 | 44:30.10 | 5:10.00 | 200260 | 223509
    12 | 49:40.10 | 5:07.60 | 223510 | 246594
    13 | 54:47.70 | 4:56.20 | 246595 | 268814
    14 | 59:44.15 | 2:34.00 | 268815 | 280364


    Range status and errors

    Selected range

    Filename F:\EAC\Acoustic Alchemy\Aart (2001)\Acoustic Alchemy - Aart.wav

    Peak level 99.8 %
    Range quality 100.0 %
    Test CRC 9700272D
    Copy CRC 9700272D
    Copy OK

    No errors occurred


    AccurateRip summary

    Track 1 accurately ripped (confidence 28) [9B1AD4C2]
    Track 2 accurately ripped (confidence 28) [51034DE7]
    Track 3 accurately ripped (confidence 28) [11EC811E]
    Track 4 accurately ripped (confidence 28) [5A677AAF]
    Track 5 accurately ripped (confidence 28) [FB390C43]
    Track 6 accurately ripped (confidence 28) [1FFD8671]
    Track 7 accurately ripped (confidence 28) [7323E0C6]
    Track 8 accurately ripped (confidence 26) [0EDACB6F]
    Track 9 accurately ripped (confidence 26) [84BB7B4D]
    Track 10 accurately ripped (confidence 26) [3DE2232A]
    Track 11 accurately ripped (confidence 25) [58DF1831]
    Track 12 accurately ripped (confidence 26) [6CB71874]
    Track 13 accurately ripped (confidence 27) [C8C6E38B]
    Track 14 accurately ripped (confidence 27) [8325C748]

    All tracks accurately ripped

    End of status report

    /////////////////////////////////////////////////////////////////////////////////////////////

    -----------------------

    DON'T MODIFY THIS FILE

    -----------------------

    PERFORMER: auCDtect Task Manager, ver. 1.6.0 RC1 build 1.6.0.1
    Copyright (c) 2008-2010 y-soft. All rights reserved
    http://y-soft.org

    ANALYZER: auCDtect: CD records authenticity detector, version 0.8.2
    Copyright (c) 2004 Oleg Berngardt. All rights reserved.
    Copyright (c) 2004 Alexander Djourik. All rights reserved.


    FILE: Acoustic Alchemy - Aart.flac
    Size: 424192311 Hash: 9175469DC06214B4AB75F2F038A444F9 Accuracy: -m0
    Conclusion: CDDA 100%
    Signature: E792DEAF3920179F13048A6F980F01B3AF22B0EA

    /////////////////////////////////////////////////////////////////////////////////////////////

    foobar2000 1.3.3 / Dynamic Range Meter 1.1.1
    log date: 2014-09-24 21:16:49

    --------------------------------------------------------------------------------
    Analyzed: Acoustic Alchemy / Aart
    --------------------------------------------------------------------------------

    DR Peak RMS Duration Track
    --------------------------------------------------------------------------------
    DR9 -0.01 dB -10.78 dB 4:05 01-Wish You Were Near
    DR9 -0.01 dB -11.10 dB 4:01 02-Aart Attack
    DR10 -0.01 dB -12.02 dB 4:05 03-Flamoco Loco
    DR9 -0.01 dB -11.84 dB 5:15 04-Tuff Puzzle
    DR9 -0.01 dB -11.68 dB 4:46 05-Passion Play
    DR8 -0.01 dB -10.21 dB 4:33 06-Senjo Wine
    DR9 -0.01 dB -11.07 dB 3:44 07-Viva Che
    DR9 -0.01 dB -11.68 dB 5:36 08-The Velvet Swing
    DR9 -0.01 dB -11.62 dB 4:10 09-Robbie's Revenge
    DR9 -0.01 dB -10.80 dB 4:15 10-Love At A Distance
    DR9 -0.01 dB -12.30 dB 5:10 11-Code Name Pandora
    DR9 -0.01 dB -11.52 dB 5:08 12-Nathan Road
    DR10 -0.01 dB -12.20 dB 4:56 13-Cactus Blue
    DR9 -0.01 dB -12.06 dB 2:34 14-The Wind Of Change
    --------------------------------------------------------------------------------

    Number of tracks: 14
    Official DR value: DR9

    Samplerate: 44100 Hz
    Channels: 2
    Bits per sample: 16
    Bitrate: 908 kbps
    Codec: FLAC
    ================================================================================

    ///////////////////////////////////////////////////////////////////////////////////////////

    [свернуть]

    AArt is the eleventh album to be released by smooth jazz band Acoustic Alchemy. It contains more tracks than any other studio recording by the band, with fourteen. Continuing on from the radical changes enforced by The Beautiful Game, AArt follows precedent with another varied mix of styles and genres, and even calls upon saxophonist Jeff Kashiwa, formerly of The Rippingtons, to share the lead on one track, "AArt Attack".


    Скрытый текст (вы должны войти под своим логином или зарегистрироваться и иметь 5 сообщение(ий)):
    У вас нет прав чтобы видеть скрытый текст, содержащийся здесь.


  4. 8 пользователя(ей) сказали cпасибо:

    Coroed (11.07.2018), kalach (10.07.2018), Lupus (18.10.2018), Puharik (11.07.2018), Riddler (10.07.2018), salimabi (10.07.2018), vlad56 (10.07.2018), Елизавета (18.07.2018)

  5. #3
    Супер модератор Array Аватар для aheron
    Регистрация
    11.06.2018
    Сообщений
    214
    Сказал(а) спасибо
    2,145
    Поблагодарили 1,066 раз(а)
    в 168 сообщениях
    Онлайн
    3 Дней 15 ч 53 мин 35 сек
    В среднем
    1 мин 46 сек
    Acoustic Alchemy - Against The Grain (1994)





    Performer: Acoustic Alchemy
    Album: Against The Grain
    Label: GRP Records. Made in US.
    Catalog #: GRD-9783
    Style: Smooth Jazz
    Year: 1994
    Format: FLAC (image + .cue)
    Bitrate: lossless
    Covers: in archive
    Amount of tracks: 10
    Size ZIP: ~ 371 mb

    ••• Tracklist •••

    01. Acoustic Alchemy - Against The Grain [5:39]
    02. Acoustic Alchemy - Lazeez [4:54]
    03. Acoustic Alchemy - A Different Kind Of Freedom [6:21]
    04. Acoustic Alchemy - Lady Lynda [5:23]
    05. Acoustic Alchemy - Road Dogs [4:20]
    06. Acoustic Alchemy - Shoot The Loop [5:20]
    07. Acoustic Alchemy - Across The Golden Gate [5:13]
    08. Acoustic Alchemy - Papillon [6:40]
    09. Acoustic Alchemy - Silent Partner [4:31]
    10. Acoustic Alchemy - Noveau Tango [5:05]
    --------------------------
    Total time: [53:24]
    [свернуть]

    ••• Log EAC + Log auCDtect + Dynamic Range Meter + Spectrum •••

    Exact Audio Copy V0.99 prebeta 5 from 4. May 2009

    EAC extraction logfile from 3. December 2009, 17:21

    Acoustic Alchemy / Against the Grain

    Used drive : HL-DT-STDVDRAM GH22NS50 Adapter: 3 ID: 1

    Read mode : Secure
    Utilize accurate stream : Yes
    Defeat audio cache : Yes
    Make use of C2 pointers : No

    Read offset correction : 667
    Overread into Lead-In and Lead-Out : No
    Fill up missing offset samples with silence : Yes
    Delete leading and trailing silent blocks : No
    Null samples used in CRC calculations : Yes
    Used interface : Installed external ASPI interface

    Used output format : User Defined Encoder
    Selected bitrate : 128 kBit/s
    Quality : High
    Add ID3 tag : No
    Command line compressor : D:\Tools\Codecs\WavPack Frontend 2.0\wavpack.exe
    Additional command line options : -h %s %d


    TOC of the extracted CD

    Track | Start | Length | Start sector | End sector
    ---------------------------------------------------------
    1 | 0:00.32 | 5:38.70 | 32 | 25451
    2 | 5:39.27 | 4:54.25 | 25452 | 47526
    3 | 10:33.52 | 6:20.48 | 47527 | 76074
    4 | 16:54.25 | 5:22.45 | 76075 | 100269
    5 | 22:16.70 | 4:19.47 | 100270 | 119741
    6 | 26:36.42 | 5:19.73 | 119742 | 143739
    7 | 31:56.40 | 5:12.55 | 143740 | 167194
    8 | 37:09.20 | 6:39.52 | 167195 | 197171
    9 | 43:48.72 | 4:30.40 | 197172 | 217461
    10 | 48:19.37 | 5:04.70 | 217462 | 240331


    Range status and errors

    Selected range

    Filename F:\EAC\Acoustic Alchemy\Against The Grain (1994)\Acoustic Alchemy - Against the Grain.wav

    Peak level 100.0 %
    Range quality 99.9 %
    Test CRC 07DA6179
    Copy CRC 07DA6179
    Copy OK

    No errors occurred


    AccurateRip summary

    Track 1 accurately ripped (confidence 2) [B9A180CB]
    Track 2 accurately ripped (confidence 2) [D91D817D]
    Track 3 accurately ripped (confidence 2) [31BB6291]
    Track 4 accurately ripped (confidence 2) [94D918E5]
    Track 5 accurately ripped (confidence 2) [AEE293AE]
    Track 6 accurately ripped (confidence 2) [22C9F9A6]
    Track 7 accurately ripped (confidence 3) [93DAA4ED]
    Track 8 accurately ripped (confidence 2) [B24B80AB]
    Track 9 accurately ripped (confidence 2) [7500B542]
    Track 10 accurately ripped (confidence 2) [45281BDF]

    All tracks accurately ripped

    End of status report

    ////////////////////////////////////////////////////////////////////////////////

    -----------------------

    DON'T MODIFY THIS FILE

    -----------------------

    PERFORMER: auCDtect Task Manager, ver. 1.6.0 RC1 build 1.6.0.1
    Copyright (c) 2008-2010 y-soft. All rights reserved
    http://y-soft.org

    ANALYZER: auCDtect: CD records authenticity detector, version 0.8.2
    Copyright (c) 2004 Oleg Berngardt. All rights reserved.
    Copyright (c) 2004 Alexander Djourik. All rights reserved.


    FILE: Acoustic Alchemy - Against the Grain.flac
    Size: 341047273 Hash: 3313C1A7BB640B21C7EA0BCD097BFACD Accuracy: -m0
    Conclusion: CDDA 100%
    Signature: C8ED2C69F77107F6323D3C1A3175A027EDCBCFD9

    ///////////////////////////////////////////////////////////////////////////////

    foobar2000 1.3.3 / Dynamic Range Meter 1.1.1
    log date: 2014-09-24 21:23:46

    --------------------------------------------------------------------------------
    Analyzed: Acoustic Alchemy / Against the Grain
    --------------------------------------------------------------------------------

    DR Peak RMS Duration Track
    --------------------------------------------------------------------------------
    DR9 0.00 dB -11.57 dB 5:39 01-Against The Grain
    DR11 0.00 dB -13.80 dB 4:54 02-Lazeez
    DR11 0.00 dB -13.06 dB 6:21 03-A Different Kind Of Freedom
    DR12 0.00 dB -14.03 dB 5:23 04-Lady Lynda
    DR11 0.00 dB -13.16 dB 4:20 05-Road Dogs
    DR10 -0.24 dB -11.98 dB 5:20 06-Shoot The Loop
    DR11 0.00 dB -13.04 dB 5:13 07-Across The Golden Gate
    DR13 0.00 dB -15.63 dB 6:40 08-Papillon
    DR11 0.00 dB -13.08 dB 4:31 09-Silent Partner
    DR11 0.00 dB -12.59 dB 5:05 10-Noveau Tango
    --------------------------------------------------------------------------------

    Number of tracks: 10
    Official DR value: DR11

    Samplerate: 44100 Hz
    Channels: 2
    Bits per sample: 16
    Bitrate: 851 kbps
    Codec: FLAC
    ================================================================================

    /////////////////////////////////////////////////////////////////////////////

    [свернуть]

    Against The Grain, Acoustic Alchemy's 7th album, was released in 1994 under the GRP label.
    Despite having only ten tracks, "Against The Grain" still manages to notch up a total play time of 53 minutes, notably because of the band's experimentation with some longer, more drawn out tracks.


    Скрытый текст (вы должны войти под своим логином или зарегистрироваться и иметь 5 сообщение(ий)):
    У вас нет прав чтобы видеть скрытый текст, содержащийся здесь.

  6. 9 пользователя(ей) сказали cпасибо:

    Coroed (11.07.2018), kalach (12.07.2018), Lupus (18.10.2018), Puharik (11.07.2018), Riddler (11.07.2018), salimabi (13.07.2018), Shuravi (12.07.2018), vlad56 (11.07.2018), Елизавета (18.07.2018)

  7. #4
    Супер модератор Array Аватар для aheron
    Регистрация
    11.06.2018
    Сообщений
    214
    Сказал(а) спасибо
    2,145
    Поблагодарили 1,066 раз(а)
    в 168 сообщениях
    Онлайн
    3 Дней 15 ч 53 мин 35 сек
    В среднем
    1 мин 46 сек
    Acoustic Alchemy - American/English (2005)





    Performer: Acoustic Alchemy
    Album: American/English
    Label: Higher Octave Music. Made in US.
    Catalog #: 72435-79755-2-0
    Style: Smooth Jazz, Fusion
    Year: 2005
    Format: FLAC (image + .cue)
    Bitrate: lossless
    Covers: in archive
    Amount of tracks: 11
    Size ZIP: ~ 363 mb

    ••• Tracklist •••

    01. Acoustic Alchemy - The Crossing [4:43]
    02. Acoustic Alchemy - Say Yeah [3:40]
    03. Acoustic Alchemy - So Kylie [4:22]
    04. Acoustic Alchemy - Trinity [4:42]
    05. Acoustic Alchemy - The Detroit Shuffle [4:29]
    06. Acoustic Alchemy - Cherry Hill [3:27]
    07. Acoustic Alchemy - She Speaks American/English [4:44]
    08. Acoustic Alchemy - Lilac Lane [4:49]
    09. Acoustic Alchemy - The 14 Carrot Caf [4:10]
    10. Acoustic Alchemy - Get Up (Levantar Y Bailar) [3:58]
    11. Acoustic Alchemy - The Moon And The Sun [5:39]
    --------------------------
    Total time: [48:43]
    [свернуть]

    ••• Log EAC + Log auCDtect + Dynamic Range Meter + Spectrum •••

    Exact Audio Copy V0.99 prebeta 5 from 4. May 2009

    EAC extraction logfile from 3. December 2009, 20:07

    Acoustic Alchemy / American/English

    Used drive : HL-DT-STDVDRAM GH22NS50 Adapter: 3 ID: 1

    Read mode : Secure
    Utilize accurate stream : Yes
    Defeat audio cache : Yes
    Make use of C2 pointers : No

    Read offset correction : 667
    Overread into Lead-In and Lead-Out : No
    Fill up missing offset samples with silence : Yes
    Delete leading and trailing silent blocks : No
    Null samples used in CRC calculations : Yes
    Used interface : Installed external ASPI interface

    Used output format : User Defined Encoder
    Selected bitrate : 128 kBit/s
    Quality : High
    Add ID3 tag : No
    Command line compressor : D:\Tools\Codecs\WavPack Frontend 2.0\wavpack.exe
    Additional command line options : -h %s %d


    TOC of the extracted CD

    Track | Start | Length | Start sector | End sector
    ---------------------------------------------------------
    1 | 0:00.00 | 4:42.74 | 0 | 21223
    2 | 4:42.74 | 3:39.50 | 21224 | 37698
    3 | 8:22.49 | 4:22.13 | 37699 | 57361
    4 | 12:44.62 | 4:41.61 | 57362 | 78497
    5 | 17:26.48 | 4:29.14 | 78498 | 98686
    6 | 21:55.62 | 3:27.20 | 98687 | 114231
    7 | 25:23.07 | 4:44.04 | 114232 | 135535
    8 | 30:07.11 | 4:49.29 | 135536 | 157239
    9 | 34:56.40 | 4:09.40 | 157240 | 175954
    10 | 39:06.05 | 3:57.69 | 175955 | 193798
    11 | 43:03.74 | 5:39.10 | 193799 | 219233


    Range status and errors

    Selected range

    Filename F:\EAC\Acoustic Alchemy\American English (2005)\Acoustic Alchemy - American English.wav

    Peak level 98.8 %
    Range quality 100.0 %
    Test CRC A87452F4
    Copy CRC A87452F4
    Copy OK

    No errors occurred


    AccurateRip summary

    Track 1 accurately ripped (confidence 15) [59D2FD49]
    Track 2 accurately ripped (confidence 15) [6F27EA06]
    Track 3 accurately ripped (confidence 15) [3F4A6E61]
    Track 4 accurately ripped (confidence 15) [422FD329]
    Track 5 accurately ripped (confidence 15) [D3AE7752]
    Track 6 accurately ripped (confidence 15) [2C7F4D05]
    Track 7 accurately ripped (confidence 15) [C389D66C]
    Track 8 accurately ripped (confidence 15) [58B261E9]
    Track 9 accurately ripped (confidence 15) [0445BE0D]
    Track 10 accurately ripped (confidence 15) [DB5D18E2]
    Track 11 accurately ripped (confidence 14) [E3C8734D]

    All tracks accurately ripped

    End of status report

    ///////////////////////////////////////////////////////////////////////////

    -----------------------

    DON'T MODIFY THIS FILE

    -----------------------

    PERFORMER: auCDtect Task Manager, ver. 1.6.0 RC1 build 1.6.0.1
    Copyright (c) 2008-2010 y-soft. All rights reserved
    http://y-soft.org

    ANALYZER: auCDtect: CD records authenticity detector, version 0.8.2
    Copyright (c) 2004 Oleg Berngardt. All rights reserved.
    Copyright (c) 2004 Alexander Djourik. All rights reserved.


    FILE: Acoustic Alchemy - American English.flac
    Size: 333660432 Hash: E402E37BFA92E0988409CFF6FD3EEFA2 Accuracy: -m0
    Conclusion: CDDA 99%
    Signature: 24E09DCF66612ABC6FBAEC978DCE92F387ED6BB1

    /////////////////////////////////////////////////////////////////////////////

    foobar2000 1.3.8 / Dynamic Range Meter 1.1.1
    log date: 2015-04-04 00:47:00

    --------------------------------------------------------------------------------
    Analyzed: Acoustic Alchemy / American/English
    --------------------------------------------------------------------------------

    DR Peak RMS Duration Track
    --------------------------------------------------------------------------------
    DR8 -0.10 dB -8.73 dB 4:43 01-The Crossing
    DR8 -0.10 dB -9.58 dB 3:40 02-Say Yeah
    DR8 -0.10 dB -9.35 dB 4:22 03-So Kylie
    DR9 -0.10 dB -10.25 dB 4:42 04-Trinity
    DR9 -0.10 dB -10.72 dB 4:29 05-The Detroit Shuffle
    DR10 -1.83 dB -14.81 dB 3:27 06-Cherry Hill
    DR9 -0.10 dB -11.19 dB 4:44 07-She Speaks American/English
    DR9 -0.10 dB -10.80 dB 4:49 08-Lilac Lane
    DR7 -1.31 dB -11.22 dB 4:10 09-The 14 Carrot Caf
    DR8 -0.10 dB -9.94 dB 3:58 10-Get Up (Levantar Y Bailar)
    DR7 -0.22 dB -9.06 dB 5:39 11-The Moon And The Sun
    --------------------------------------------------------------------------------

    Number of tracks: 11
    Official DR value: DR8

    Samplerate: 44100 Hz
    Channels: 2
    Bits per sample: 16
    Bitrate: 913 kbps
    Codec: FLAC
    ================================================================================

    [свернуть]

    American/English is Acoustic Alchemy's fourth album release on the Higher Octave Music label, and contains eleven tracks, making it also their shortest album with the label to date. The album was preceded by single "Say Yeah" for smooth jazz radio in the USA, an offering in a hip-hop style, remarked by some to be similar in style to British urban singer-songwriter Craig David. Experimental attributes include digital processing on Carmichael's guitar, which 'cut off' the ends of each note, and scat style vocals from Gilderdale toward the end of the track. Other highlights include "The Detroit Shuffle", reminiscent of 1989's "Catalina Kiss" from the "Blue Chip" album. The track fused a vibrant melody with the shuffle rhythm which helped seal the band's popularity in the genre towards the end of the 1980s.


    Скрытый текст (вы должны войти под своим логином или зарегистрироваться и иметь 5 сообщение(ий)):
    У вас нет прав чтобы видеть скрытый текст, содержащийся здесь.

  8. 8 пользователя(ей) сказали cпасибо:

    Coroed (14.07.2018), kalach (13.07.2018), Lupus (18.10.2018), Puharik (13.07.2018), Riddler (13.07.2018), salimabi (13.07.2018), vlad56 (19.07.2018), Елизавета (18.07.2018)

  9. #5
    Супер модератор Array Аватар для aheron
    Регистрация
    11.06.2018
    Сообщений
    214
    Сказал(а) спасибо
    2,145
    Поблагодарили 1,066 раз(а)
    в 168 сообщениях
    Онлайн
    3 Дней 15 ч 53 мин 35 сек
    В среднем
    1 мин 46 сек
    Acoustic Alchemy - Arcanum (1996)





    Performer: Acoustic Alchemy
    Album: Arcanum
    Label: GRP Records. Made in US.
    Catalog #: GRD-9848
    Style: Smooth Jazz
    Year: 1996 (Compilation)
    Format: FLAC (image + .cue)
    Bitrate: lossless
    Covers: in archive
    Amount of tracks: 12
    Size ZIP: ~ 352 mb

    ••• Tracklist •••

    01. Acoustic Alchemy - Columbia [4:51]
    02. Acoustic Alchemy - Homecoming [5:43]
    03. Acoustic Alchemy - Chance Meeting [3:50]
    04. Acoustic Alchemy - Lazeez [5:51]
    05. Acoustic Alchemy - Mr. Chow [3:16]
    06. Acoustic Alchemy - Same Road Same Reason [4:16]
    07. Acoustic Alchemy - Casino [6:09]
    08. Acoustic Alchemy - Something She Said [3:58]
    09. Acoustic Alchemy - Jamaica Heartbeat [3:56]
    10. Acoustic Alchemy - Catalina Kiss [4:24]
    11. Acoustic Alchemy - Reference Point [4:23]
    12. Acoustic Alchemy - Hearts In Chains [3:23]
    --------------------------
    Total time: [53:59]
    [свернуть]

    ••• Log EAC + Log auCDtect + Dynamic Range Meter + Spectrum •••

    Exact Audio Copy V0.99 prebeta 5 from 4. May 2009

    EAC extraction logfile from 7. December 2009, 14:09

    Acoustic Alchemy / Arcanum

    Used drive : HL-DT-STDVDRAM GH22NS50 Adapter: 3 ID: 1

    Read mode : Secure
    Utilize accurate stream : Yes
    Defeat audio cache : Yes
    Make use of C2 pointers : No

    Read offset correction : 667
    Overread into Lead-In and Lead-Out : No
    Fill up missing offset samples with sil•ence : Yes
    Delete leading and trailing silent blocks : No
    Null samples used in CRC calculations : Yes
    Used interface : Installed external ASPI interface

    Used output format : User Defined Encoder
    Selected bitrate : 128 kBit/s
    Quality : High
    Add ID3 tag : No
    Command line compressor : D:\Tools\Codecs\WavPack Frontend 2.0\wavpack.exe
    Additional command line options : -h %s %d


    TOC of the extracted CD

    Track | Start | Length | Start sector | End sector
    ---------------------------------------------------------
    1 | 0:00.00 | 4:50.63 | 0 | 21812
    2 | 4:50.63 | 5:42.42 | 21813 | 47504
    3 | 10:33.30 | 3:50.28 | 47505 | 64782
    4 | 14:23.58 | 5:50.62 | 64783 | 91094
    5 | 20:14.45 | 3:15.68 | 91095 | 105787
    6 | 23:30.38 | 4:15.62 | 105788 | 124974
    7 | 27:46.25 | 6:08.58 | 124975 | 152632
    8 | 33:55.08 | 3:57.62 | 152633 | 170469
    9 | 37:52.70 | 3:56.00 | 170470 | 188169
    10 | 41:48.70 | 4:24.18 | 188170 | 207987
    11 | 46:13.13 | 4:23.27 | 207988 | 227739
    12 | 50:36.40 | 3:22.53 | 227740 | 242942


    Range status and errors

    Selected range

    Filename F:\EAC\Acoustic Alchemy\Arcanum (1996)\Acoustic Alchemy - Arcanum.wav

    Peak level 100.0 %
    Range quality 100.0 %
    Test CRC E3957649
    Copy CRC E3957649
    Copy OK

    No errors occurred


    AccurateRip summary

    Track 1 accurately ripped (confidence 3) [9CA08A16]
    Track 2 accurately ripped (confidence 3) [36737B93]
    Track 3 accurately ripped (confidence 3) [1A404BB6]
    Track 4 accurately ripped (confidence 3) [448F3CFD]
    Track 5 accurately ripped (confidence 3) [DBBB85F4]
    Track 6 accurately ripped (confidence 3) [4D70ABDC]
    Track 7 accurately ripped (confidence 3) [BC97F8D0]
    Track 8 accurately ripped (confidence 3) [AD5DC8B9]
    Track 9 accurately ripped (confidence 3) [7D9ACFBF]
    Track 10 accurately ripped (confidence 3) [968CA23D]
    Track 11 accurately ripped (confidence 3) [EA1D9E73]
    Track 12 accurately ripped (confidence 3) [FC1D4436]

    All tracks accurately ripped

    End of status report

    /////////////////////////////////////////////////////////////////////////////

    -----------------------

    DON'T MODIFY THIS FILE

    -----------------------

    PERFORMER: auCDtect Task Manager, ver. 1.6.0 RC1 build 1.6.0.1
    Copyright (c) 2008-2010 y-soft. All rights reserved
    http://y-soft.org

    ANALYZER: auCDtect: CD records authenticity detector, version 0.8.2
    Copyright (c) 2004 Oleg Berngardt. All rights reserved.
    Copyright (c) 2004 Alexander Djourik. All rights reserved.


    FILE: Acoustic Alchemy - Arcanum.flac
    Size: 332331325 Hash: B732424637245E722EC5DF4CE95108A1 Accuracy: -m0
    Conclusion: CDDA 100%
    Signature: 58758E2D3EBB3A15A88475318B874736EFFBBDA0

    /////////////////////////////////////////////////////////////////////////////

    foobar2000 1.3.3 / Dynamic Range Meter 1.1.1
    log date: 2014-09-24 20:06:11

    --------------------------------------------------------------------------------
    Analyzed: Acoustic Alchemy / Arcanum
    --------------------------------------------------------------------------------

    DR Peak RMS Duration Track
    --------------------------------------------------------------------------------
    DR13 0.00 dB -15.70 dB 4:51 01-Columbia
    DR12 0.00 dB -13.37 dB 5:43 02-Homecoming
    DR13 -1.20 dB -17.90 dB 3:50 03-Chance Meeting
    DR11 0.00 dB -13.30 dB 5:51 04-Lazeez
    DR14 0.00 dB -15.63 dB 3:16 05-Mr. Chow
    DR14 0.00 dB -15.39 dB 4:16 06-Same Road Same Reason
    DR13 0.00 dB -15.60 dB 6:09 07-Casino
    DR14 -0.68 dB -18.23 dB 3:58 08-Something She Said
    DR14 0.00 dB -16.44 dB 3:56 09-Jamaica Heartbeat
    DR15 0.00 dB -16.42 dB 4:24 10-Catalina Kiss
    DR12 0.00 dB -14.97 dB 4:23 11-Reference Point
    DR13 -1.66 dB -19.57 dB 3:23 12-Hearts In Chains
    --------------------------------------------------------------------------------

    Number of tracks: 12
    Official DR value: DR13

    Samplerate: 44100 Hz
    Channels: 2
    Bits per sample: 16
    Bitrate: 821 kbps
    Codec: FLAC
    ================================================================================

    [свернуть]

    Arcanum (spelled a͡rcānˈum on the cover) was a 1996 album released by Acoustic Alchemy, their penultimate release on the GRP jazz label. The production on this album differed from normal; the band recorded the disc live at Pinewood Film Studios, London, UK. They enlisted the help of the London Metropolitan Orchestra to provide backing. The album contained twelve tracks, three of which were new ("Columbia", "Chance Meeting" and "Something She Said"), and the others re-recordings of tracks selected from the band's discography to this point.
    Скрытый текст (вы должны войти под своим логином или зарегистрироваться и иметь 5 сообщение(ий)):
    У вас нет прав чтобы видеть скрытый текст, содержащийся здесь.

  10. 8 пользователя(ей) сказали cпасибо:

    Coroed (14.07.2018), kalach (14.07.2018), Lupus (18.10.2018), Puharik (14.07.2018), Riddler (14.07.2018), salimabi (14.07.2018), vlad56 (19.07.2018), Елизавета (18.07.2018)

  11. #6
    Супер модератор Array Аватар для aheron
    Регистрация
    11.06.2018
    Сообщений
    214
    Сказал(а) спасибо
    2,145
    Поблагодарили 1,066 раз(а)
    в 168 сообщениях
    Онлайн
    3 Дней 15 ч 53 мин 35 сек
    В среднем
    1 мин 46 сек
    Acoustic Alchemy - Back On The Case (1991)





    Performer: Acoustic Alchemy
    Album: Back On The Case
    Label: GRP Records. Made in US.
    Catalog #: GRD-9648
    Style: Smooth Jazz
    Year: 1991
    Format: FLAC (image + .cue)
    Bitrate: lossless
    Covers: in archive
    Amount of tracks: 10
    Size ZIP: ~ 322 mb

    ••• Tracklist •••

    01. Acoustic Alchemy - The Alchemist [3:55]
    02. Acoustic Alchemy - Jamaica Heartbeat [5:34]
    03. Acoustic Alchemy - Georgia Peach [4:25]
    04. Acoustic Alchemy - Playing For Time [6:04]
    05. Acoustic Alchemy - When The Lights Go Out [4:37]
    06. Acoustic Alchemy - Clear Air For Miles [6:37]
    07. Acoustic Alchemy - Fire Of The Heart [4:08]
    08. Acoustic Alchemy - Freeze Frame [4:04]
    09. Acoustic Alchemy - On The Case [4:00]
    10. Acoustic Alchemy - Break For The Border [4:55]
    --------------------------
    Total time: [48:18]
    [свернуть]

    ••• Log EAC + Log auCDtect + Dynamic Range Meter + Spectrum •••

    Exact Audio Copy V0.99 prebeta 5 from 4. May 2009

    EAC extraction logfile from 7. December 2009, 13:52

    Acoustic Alchemy / Back On The Case

    Used drive : HL-DT-STDVDRAM GH22NS50 Adapter: 3 ID: 1

    Read mode : Secure
    Utilize accurate stream : Yes
    Defeat audio cache : Yes
    Make use of C2 pointers : No

    Read offset correction : 667
    Overread into Lead-In and Lead-Out : No
    Fill up missing offset samples with silence : Yes
    Delete leading and trailing silent blocks : No
    Null samples used in CRC calculations : Yes
    Used interface : Installed external ASPI interface

    Used output format : User Defined Encoder
    Selected bitrate : 128 kBit/s
    Quality : High
    Add ID3 tag : No
    Command line compressor : D:\Tools\Codecs\WavPack Frontend 2.0\wavpack.exe
    Additional command line options : -h %s %d


    TOC of the extracted CD

    Track | Start | Length | Start sector | End sector
    ---------------------------------------------------------
    1 | 0:00.32 | 3:55.00 | 32 | 17656
    2 | 3:55.32 | 5:33.50 | 17657 | 42681
    3 | 9:29.07 | 4:25.00 | 42682 | 62556
    4 | 13:54.07 | 6:03.68 | 62557 | 89849
    5 | 19:58.00 | 4:37.07 | 89850 | 110631
    6 | 24:35.07 | 6:36.63 | 110632 | 140394
    7 | 31:11.70 | 4:08.12 | 140395 | 159006
    8 | 35:20.07 | 4:03.63 | 159007 | 177294
    9 | 39:23.70 | 3:59.65 | 177295 | 195284
    10 | 43:23.60 | 4:54.60 | 195285 | 217394


    Range status and errors

    Selected range

    Filename F:\EAC\Acoustic Alchemy\Back On The Case (1991)\Acoustic Alchemy - Back On The Case.wav

    Peak level 99.8 %
    Range quality 99.9 %
    Test CRC AA14EF89
    Copy CRC AA14EF89
    Copy OK

    No errors occurred


    AccurateRip summary

    Track 1 accurately ripped (confidence 3) [FF6ECB9F]
    Track 2 accurately ripped (confidence 3) [F2C6C758]
    Track 3 accurately ripped (confidence 3) [CC147ED4]
    Track 4 accurately ripped (confidence 3) [2EF08DC5]
    Track 5 accurately ripped (confidence 3) [2AF512F6]
    Track 6 accurately ripped (confidence 3) [3A61700B]
    Track 7 accurately ripped (confidence 3) [0E022FE5]
    Track 8 accurately ripped (confidence 3) [73490CAB]
    Track 9 accurately ripped (confidence 3) [34BE6A86]
    Track 10 accurately ripped (confidence 3) [2B8C947C]

    All tracks accurately ripped

    End of status report

    /////////////////////////////////////////////////////////////////////////////

    -----------------------

    DON'T MODIFY THIS FILE

    -----------------------

    PERFORMER: auCDtect Task Manager, ver. 1.6.0 RC1 build 1.6.0.1
    Copyright (c) 2008-2010 y-soft. All rights reserved
    http://y-soft.org

    ANALYZER: auCDtect: CD records authenticity detector, version 0.8.2
    Copyright (c) 2004 Oleg Berngardt. All rights reserved.
    Copyright (c) 2004 Alexander Djourik. All rights reserved.


    FILE: Acoustic Alchemy - Back On The Case.flac
    Size: 319600334 Hash: C6865427AB5B44B83A1C532DF8B042F7 Accuracy: -m0
    Conclusion: CDDA 100%
    Signature: D67FB99D3ACDCB05D66382678C76ABA9568A3324

    /////////////////////////////////////////////////////////////////////////////

    foobar2000 1.3.3 / Dynamic Range Meter 1.1.1
    log date: 2014-09-09 22:10:31

    --------------------------------------------------------------------------------
    Analyzed: Acoustic Alchemy / Back On The Case
    --------------------------------------------------------------------------------

    DR Peak RMS Duration Track
    --------------------------------------------------------------------------------
    DR12 -0.04 dB -13.95 dB 3:55 01-The Alchemist
    DR13 -0.01 dB -14.89 dB 5:34 02-Jamaica Heartbeat
    DR13 -0.01 dB -14.72 dB 4:25 03-Georgia Peach
    DR12 -0.01 dB -14.17 dB 6:04 04-Playing For Time
    DR13 -0.01 dB -15.59 dB 4:37 05-When The Lights Go Out
    DR12 -0.01 dB -15.57 dB 6:37 06-Clear Air For Miles
    DR13 -0.01 dB -15.58 dB 4:08 07-Fire Of The Heart
    DR13 -1.28 dB -16.43 dB 4:04 08-Freeze Frame
    DR13 -0.01 dB -14.55 dB 4:00 09-On The Case
    DR13 -0.01 dB -14.17 dB 4:55 10-Break For The Border
    --------------------------------------------------------------------------------

    Number of tracks: 10
    Official DR value: DR13

    Samplerate: 44100 Hz
    Channels: 2
    Bits per sample: 16
    Bitrate: 882 kbps
    Codec: FLAC
    ================================================================================

    ///////////////////////////////////////////////////////////////////////////////

    [свернуть]

    Back On The Case is the fifth studio album by Acoustic Alchemy released in 1991. The first four tracks from this album all appear on the band's 2002 compilation album, "The Very Best Of Acoustic Alchemy". It is also the second album by the band to feature pianist Terry Disley.
    Скрытый текст (вы должны войти под своим логином или зарегистрироваться и иметь 5 сообщение(ий)):
    У вас нет прав чтобы видеть скрытый текст, содержащийся здесь.

  12. 8 пользователя(ей) сказали cпасибо:

    Coroed (18.07.2018), kalach (15.07.2018), Lupus (18.10.2018), Puharik (18.07.2018), Riddler (15.07.2018), salimabi (15.07.2018), vlad56 (19.07.2018), Елизавета (18.07.2018)

  13. #7
    Супер модератор Array Аватар для aheron
    Регистрация
    11.06.2018
    Сообщений
    214
    Сказал(а) спасибо
    2,145
    Поблагодарили 1,066 раз(а)
    в 168 сообщениях
    Онлайн
    3 Дней 15 ч 53 мин 35 сек
    В среднем
    1 мин 46 сек
    Acoustic Alchemy - Blue Chip (1989) [Reissue 1993]





    Performer: Acoustic Alchemy
    Album: Blue Chip
    Label: GRP Records. Made in Germany.
    Catalog #: GRP 01402
    Style: Smooth Jazz
    Year: 1989 (Reissue 1993)
    Format: FLAC (image + .cue)
    Bitrate: lossless
    Covers: in archive
    Amount of tracks: 10
    Size ZIP: ~ 261 mb

    ••• Tracklist •••

    01. Acoustic Alchemy - Catalina Kiss [4:37]
    02. Acoustic Alchemy - The Blue Chip Bop [3:44]
    03. Acoustic Alchemy - Making Waves [4:55]
    04. Acoustic Alchemy - With You In Mind [4:01]
    05. Acoustic Alchemy - Bright Tiger [4:50]
    06. Acoustic Alchemy - Ariane [4:56]
    07. Acoustic Alchemy - Highland [4:45]
    08. Acoustic Alchemy - Boulder Coaster [5:29]
    09. Acoustic Alchemy - Hearts In Chains [3:33]
    10. Acoustic Alchemy - No More Nachos (Por Favor) [3:35]
    --------------------------
    Total time: [44:24]


    Notes:
    ===============
    Originally released in 1988. This is a reissue.
    [свернуть]

    ••• Log EAC + Log auCDtect + Dynamic Range Meter + Spectrum •••

    Exact Audio Copy V0.99 prebeta 5 from 4. May 2009

    EAC extraction logfile from 6. December 2009, 22:19

    Acoustic Alchemy / Blue Chip

    Used drive : HL-DT-STDVDRAM GH22NS50 Adapter: 3 ID: 1

    Read mode : Secure
    Utilize accurate stream : Yes
    Defeat audio cache : Yes
    Make use of C2 pointers : No

    Read offset correction : 667
    Overread into Lead-In and Lead-Out : No
    Fill up missing offset samples with silence : Yes
    Delete leading and trailing silent blocks : No
    Null samples used in CRC calculations : Yes
    Used interface : Installed external ASPI interface

    Used output format : User Defined Encoder
    Selected bitrate : 128 kBit/s
    Quality : High
    Add ID3 tag : No
    Command line compressor : D:\Tools\Codecs\WavPack Frontend 2.0\wavpack.exe
    Additional command line options : -h %s %d


    TOC of the extracted CD

    Track | Start | Length | Start sector | End sector
    ---------------------------------------------------------
    1 | 0:00.33 | 4:36.65 | 33 | 20797
    2 | 4:37.23 | 3:43.60 | 20798 | 37582
    3 | 8:21.08 | 4:54.42 | 37583 | 59674
    4 | 13:15.50 | 4:01.20 | 59675 | 77769
    5 | 17:16.70 | 4:49.38 | 77770 | 99482
    6 | 22:06.33 | 4:56.02 | 99483 | 121684
    7 | 27:02.35 | 4:44.58 | 121685 | 143042
    8 | 31:47.18 | 5:29.07 | 143043 | 167724
    9 | 37:16.25 | 3:32.45 | 167725 | 183669
    10 | 40:48.70 | 3:35.18 | 183670 | 199812


    Range status and errors

    Selected range

    Filename F:\EAC\Acoustic Alchemy\Blue Chip (1989)\Acoustic Alchemy - Blue Chip.wav

    Peak level 100.0 %
    Range quality 99.9 %
    Test CRC D3BF329E
    Copy CRC D3BF329E
    Copy OK

    No errors occurred


    AccurateRip summary

    Track 1 accurately ripped (confidence 4) [C6142347]
    Track 2 accurately ripped (confidence 4) [478847E3]
    Track 3 accurately ripped (confidence 4) [6934D0E6]
    Track 4 accurately ripped (confidence 4) [F267FB6A]
    Track 5 accurately ripped (confidence 4) [37B62C01]
    Track 6 accurately ripped (confidence 4) [95ACF5B7]
    Track 7 accurately ripped (confidence 4) [41D199E2]
    Track 8 accurately ripped (confidence 4) [106D62E6]
    Track 9 accurately ripped (confidence 4) [487FDCC2]
    Track 10 accurately ripped (confidence 4) [01988817]

    All tracks accurately ripped

    End of status report

    ///////////////////////////////////////////////////////////////////////////////

    -----------------------

    DON'T MODIFY THIS FILE

    -----------------------

    PERFORMER: auCDtect Task Manager, ver. 1.6.0 RC1 build 1.6.0.1
    Copyright (c) 2008-2010 y-soft. All rights reserved
    http://y-soft.org

    ANALYZER: auCDtect: CD records authenticity detector, version 0.8.2
    Copyright (c) 2004 Oleg Berngardt. All rights reserved.
    Copyright (c) 2004 Alexander Djourik. All rights reserved.


    FILE: Acoustic Alchemy - Blue Chip.flac
    Size: 263691305 Hash: C8CB5690579B20FCF199B0A394193438 Accuracy: -m0
    Conclusion: CDDA 100%
    Signature: 8495AB1F2BB00A0DD1FACDA4BC263B50B013AA2D

    //////////////////////////////////////////////////////////////////////////////

    foobar2000 1.3.3 / Dynamic Range Meter 1.1.1
    log date: 2014-09-10 00:54:06

    --------------------------------------------------------------------------------
    Analyzed: Acoustic Alchemy / Blue Chip
    --------------------------------------------------------------------------------

    DR Peak RMS Duration Track
    --------------------------------------------------------------------------------
    DR17 -0.85 dB -20.30 dB 4:37 01-Catalina Kiss
    DR16 -1.21 dB -18.08 dB 3:44 02-The Blue Chip Bop
    DR16 -2.00 dB -19.99 dB 4:55 03-Making Waves
    DR14 -3.67 dB -20.90 dB 4:01 04-With You In Mind
    DR14 -2.94 dB -20.41 dB 4:50 05-Bright Tiger
    DR15 -0.44 dB -18.82 dB 4:56 06-Ariane
    DR14 -0.87 dB -19.75 dB 4:45 07-Highland
    DR16 0.00 dB -18.96 dB 5:29 08-Boulder Coaster
    DR14 -2.36 dB -20.23 dB 3:33 09-Hearts In Chains
    DR15 -1.77 dB -20.06 dB 3:35 10-No More Nachos (Por Favor)
    --------------------------------------------------------------------------------

    Number of tracks: 10
    Official DR value: DR15

    Samplerate: 44100 Hz
    Channels: 2
    Bits per sample: 16
    Bitrate: 792 kbps
    Codec: FLAC
    ================================================== ==============================

    ///////////////////////////////////////////////////////////////////////////////

    [свернуть]

    Blue Chip is the third album by Acoustic Alchemy, released under the MCA Master Series label in 1989, and again under GRP in 1996. The album presented an experiment with pop music in the band's signature style, using strong, memorable melody lines. The most successful track here is "Catalina Kiss", the album opener and a longstanding live favourite. Using a shuffle rhythm, the track calls upon the saxophone for embellishments, whilst tonal harmonies between the two guitars evoke a strong melody. JazzTrax presenter Art Good suggested that the track was inspired by an appearance by the band at the 1988 Catalina Island Jazz Festival.
    Acoustic Alchemy - Ariane



    Скрытый текст (вы должны войти под своим логином или зарегистрироваться и иметь 5 сообщение(ий)):
    У вас нет прав чтобы видеть скрытый текст, содержащийся здесь.

  14. 8 пользователя(ей) сказали cпасибо:

    Coroed (18.07.2018), kalach (17.07.2018), Lupus (18.10.2018), Puharik (18.07.2018), Riddler (17.07.2018), salimabi (20.07.2018), vlad56 (19.07.2018), Елизавета (18.07.2018)

  15. #8
    Супер модератор Array Аватар для aheron
    Регистрация
    11.06.2018
    Сообщений
    214
    Сказал(а) спасибо
    2,145
    Поблагодарили 1,066 раз(а)
    в 168 сообщениях
    Онлайн
    3 Дней 15 ч 53 мин 35 сек
    В среднем
    1 мин 46 сек
    Acoustic Alchemy - Early Alchemy (1992)





    Performer: Acoustic Alchemy
    Album: Early Alchemy
    Label: GRP Records. Made in US.
    Catalog #: GRD-9666
    Style: Smooth Jazz
    Year: 1992
    Format: FLAC (image + .cue)
    Bitrate: lossless
    Covers: in archive
    Amount of tracks: 14
    Size ZIP: ~ 268 mb

    ••• Tracklist •••

    01. Acoustic Alchemy - Santiago [4:22]
    02. Acoustic Alchemy - Sarah Victoria [1:57]
    03. Acoustic Alchemy - Last Summer Song [3:23]
    04. Acoustic Alchemy - Slap It Down [2:41]
    05. Acoustic Alchemy - Sira's Song [3:41]
    06. Acoustic Alchemy - Moonstone [1:49]
    07. Acoustic Alchemy - Wind It Up [4:05]
    08. Acoustic Alchemy - Casino [3:20]
    09. Acoustic Alchemy - Little Bercheres [4:42]
    10. Acoustic Alchemy - Amanecer [3:07]
    11. Acoustic Alchemy - Waiting For You [3:27]
    12. Acoustic Alchemy - Return Flight [3:24]
    13. Acoustic Alchemy - Daybreak [2:58]
    14. Acoustic Alchemy - A Dream Of Fair Women [2:21]
    --------------------------
    Total time: [45:15]
    [свернуть]

    ••• Log EAC + Log auCDtect + Dynamic Range Meter + Spectrum •••

    Exact Audio Copy V0.99 prebeta 5 from 4. May 2009

    EAC extraction logfile from 4. December 2009, 23:10

    Acoustic Alchemy / Early Alchemy

    Used drive : HL-DT-STDVDRAM GH22NS50 Adapter: 3 ID: 1

    Read mode : Secure
    Utilize accurate stream : Yes
    Defeat audio cache : Yes
    Make use of C2 pointers : No

    Read offset correction : 667
    Overread into Lead-In and Lead-Out : No
    Fill up missing offset samples with silence : Yes
    Delete leading and trailing silent blocks : No
    Null samples used in CRC calculations : Yes
    Used interface : Installed external ASPI interface

    Used output format : User Defined Encoder
    Selected bitrate : 128 kBit/s
    Quality : High
    Add ID3 tag : No
    Command line compressor : D:\Tools\Codecs\WavPack Frontend 2.0\wavpack.exe
    Additional command line options : -h %s %d


    TOC of the extracted CD

    Track | Start | Length | Start sector | End sector
    ---------------------------------------------------------
    1 | 0:00.00 | 4:21.50 | 0 | 19624
    2 | 4:21.50 | 1:57.00 | 19625 | 28399
    3 | 6:18.50 | 3:23.25 | 28400 | 43649
    4 | 9:42.00 | 2:40.50 | 43650 | 55699
    5 | 12:22.50 | 3:40.62 | 55700 | 72261
    6 | 16:03.37 | 1:49.13 | 72262 | 80449
    7 | 17:52.50 | 4:05.00 | 80450 | 98824
    8 | 21:57.50 | 3:19.50 | 98825 | 113799
    9 | 25:17.25 | 4:41.60 | 113800 | 134934
    10 | 29:59.10 | 3:06.52 | 134935 | 148936
    11 | 33:05.62 | 3:26.73 | 148937 | 164459
    12 | 36:32.60 | 3:23.65 | 164460 | 179749
    13 | 39:56.50 | 2:57.50 | 179750 | 193074
    14 | 42:54.25 | 2:20.50 | 193075 | 203624


    Range status and errors

    Selected range

    Filename F:\EAC\Acoustic Alchemy\Early Alchemy (1992)\Acoustic Alchemy - Early Alchemy.wav

    Peak level 99.8 %
    Range quality 100.0 %
    Test CRC 94F3586C
    Copy CRC 94F3586C
    Copy OK

    No errors occurred


    AccurateRip summary

    Track 1 accurately ripped (confidence 2) [11598E3F]
    Track 2 accurately ripped (confidence 2) [F7009FA7]
    Track 3 accurately ripped (confidence 2) [C2A54553]
    Track 4 accurately ripped (confidence 2) [3F7D7A52]
    Track 5 accurately ripped (confidence 2) [DE917302]
    Track 6 accurately ripped (confidence 2) [46E12AEE]
    Track 7 accurately ripped (confidence 2) [B8CA15CD]
    Track 8 accurately ripped (confidence 2) [9EAAF444]
    Track 9 accurately ripped (confidence 2) [E7E03ED9]
    Track 10 accurately ripped (confidence 2) [697A8081]
    Track 11 accurately ripped (confidence 2) [B211E7B6]
    Track 12 accurately ripped (confidence 2) [FEE74E47]
    Track 13 accurately ripped (confidence 2) [25479EDC]
    Track 14 accurately ripped (confidence 2) [676FE85C]

    All tracks accurately ripped

    End of status report

    //////////////////////////////////////////////////////////////////////////////

    -----------------------

    DON'T MODIFY THIS FILE

    -----------------------

    PERFORMER: auCDtect Task Manager, ver. 1.6.0 RC1 build 1.6.0.1
    Copyright (c) 2008-2010 y-soft. All rights reserved
    http://y-soft.org

    ANALYZER: auCDtect: CD records authenticity detector, version 0.8.2
    Copyright (c) 2004 Oleg Berngardt. All rights reserved.
    Copyright (c) 2004 Alexander Djourik. All rights reserved.


    FILE: Acoustic Alchemy - Early Alchemy.flac
    Size: 252080217 Hash: 4E0895B3F99C24AA01D21467AFD43C79 Accuracy: -m0
    Conclusion: CDDA 100%
    Signature: EA5E42D3D7AA0B6CB00AFDDB9EA9E8AF2B7A5165

    ////////////////////////////////////////////////////////////////////////////////////////////////

    foobar2000 1.3.3 / Dynamic Range Meter 1.1.1
    log date: 2014-09-10 01:14:29

    --------------------------------------------------------------------------------
    Analyzed: Acoustic Alchemy / Early Alchemy
    --------------------------------------------------------------------------------

    DR Peak RMS Duration Track
    --------------------------------------------------------------------------------
    DR11 -0.26 dB -13.72 dB 4:22 01-Santiago
    DR13 -0.97 dB -15.53 dB 1:57 02-Sarah Victoria
    DR12 -0.29 dB -14.91 dB 3:23 03-Last Summer Song
    DR12 -0.13 dB -15.27 dB 2:41 04-Slap It Down
    DR12 -0.13 dB -14.88 dB 3:41 05-Sira's Song
    DR12 -1.06 dB -15.93 dB 1:49 06-Moonstone
    DR12 -0.01 dB -15.11 dB 4:05 07-Wind It Up
    DR12 -0.10 dB -14.51 dB 3:20 08-Casino
    DR11 -0.23 dB -14.86 dB 4:42 09-Little Bercheres
    DR11 -0.20 dB -13.76 dB 3:07 10-Amanecer
    DR12 -0.12 dB -14.39 dB 3:27 11-Waiting For You
    DR11 -0.21 dB -15.03 dB 3:24 12-Return Flight
    DR10 -0.42 dB -15.47 dB 2:58 13-Daybreak
    DR13 -1.56 dB -17.60 dB 2:21 14-A Dream Of Fair Women
    --------------------------------------------------------------------------------

    Number of tracks: 14
    Official DR value: DR12

    Samplerate: 44100 Hz
    Channels: 2
    Bits per sample: 16
    Bitrate: 743 kbps
    Codec: FLAC
    ================================================================================

    ///////////////////////////////////////////////////////////////////////////////

    [свернуть]

    Early Alchemy was a compilation album produced by Nick Webb of Acoustic Alchemy and the sixth album overall released on March 16, 1992. The album was put together from old recordings and outtakes by Webb and Simon James, to give insight into the progression of the band's music. The album contains the original recordings of "Sarah Victoria" and "Casino", successful Acoustic Alchemy songs co-written by James. The instrumental make-up of the band differs here too, with a double bass, percussionist and string quartet (The Violettes) backing up the sound of the dual acoustic guitars.
    Скрытый текст (вы должны войти под своим логином или зарегистрироваться и иметь 5 сообщение(ий)):
    У вас нет прав чтобы видеть скрытый текст, содержащийся здесь.

  16. 8 пользователя(ей) сказали cпасибо:

    kalach (19.07.2018), Lupus (18.10.2018), Puharik (18.07.2018), Riddler (18.07.2018), salimabi (20.07.2018), Shuravi (19.07.2018), vlad56 (19.07.2018), Елизавета (18.07.2018)

  17. #9
    Супер модератор Array Аватар для aheron
    Регистрация
    11.06.2018
    Сообщений
    214
    Сказал(а) спасибо
    2,145
    Поблагодарили 1,066 раз(а)
    в 168 сообщениях
    Онлайн
    3 Дней 15 ч 53 мин 35 сек
    В среднем
    1 мин 46 сек
    Acoustic Alchemy - Natural Elements (1988)





    Performer: Acoustic Alchemy
    Album: Natural Elements
    Label: GRP Records. Made in US.
    Catalog #: GRD-9834
    Style: Smooth Jazz
    Year: 1988
    Format: FLAC (image + .cue)
    Bitrate: lossless
    Covers: in archive
    Amount of tracks: 8
    Size ZIP: ~ 210 mb

    ••• Tracklist •••

    01. Acoustic Alchemy - Drake's Drum [4:49]
    02. Acoustic Alchemy - Overnight Sleeper [3:40]
    03. Acoustic Alchemy - Natural Elements [3:56]
    04. Acoustic Alchemy - Casino [3:51]
    05. Acoustic Alchemy - If Only [5:17]
    06. Acoustic Alchemy - Ballad For Kay [3:00]
    07. Acoustic Alchemy - Evil The Weasel [5:38]
    08. Acoustic Alchemy - Late Night Duke Street [4:47]
    --------------------------
    Total time: [34:57]
    [свернуть]

    ••• Log EAC + Log auCDtect + Dynamic Range Meter + Spectrum •••

    Exact Audio Copy V0.99 prebeta 5 from 4. May 2009

    EAC extraction logfile from 6. December 2009, 21:40

    Acoustic Alchemy / Natural Elements

    Used drive : HL-DT-STDVDRAM GH22NS50 Adapter: 3 ID: 1

    Read mode : Secure
    Utilize accurate stream : Yes
    Defeat audio cache : Yes
    Make use of C2 pointers : No

    Read offset correction : 667
    Overread into Lead-In and Lead-Out : No
    Fill up missing offset samples with silence : Yes
    Delete leading and trailing silent blocks : No
    Null samples used in CRC calculations : Yes
    Used interface : Installed external ASPI interface

    Used output format : User Defined Encoder
    Selected bitrate : 128 kBit/s
    Quality : High
    Add ID3 tag : No
    Command line compressor : D:\Tools\Codecs\WavPack Frontend 2.0\wavpack.exe
    Additional command line options : -h %s %d


    TOC of the extracted CD

    Track | Start | Length | Start sector | End sector
    ---------------------------------------------------------
    1 | 0:00.00 | 4:49.12 | 0 | 21686
    2 | 4:49.12 | 3:39.73 | 21687 | 38184
    3 | 8:29.10 | 3:55.70 | 38185 | 55879
    4 | 12:25.05 | 3:51.05 | 55880 | 73209
    5 | 16:16.10 | 5:17.15 | 73210 | 96999
    6 | 21:33.25 | 2:59.67 | 97000 | 110491
    7 | 24:33.17 | 5:37.68 | 110492 | 135834
    8 | 30:11.10 | 4:46.62 | 135835 | 157346


    Range status and errors

    Selected range

    Filename F:\EAC\Acoustic Alchemy\Natural Elements (1988)\Acoustic Alchemy - Natural Elements.wav

    Peak level 98.0 %
    Range quality 100.0 %
    Test CRC D3234F84
    Copy CRC D3234F84
    Copy OK

    No errors occurred


    AccurateRip summary

    Track 1 accurately ripped (confidence 2) [8D1E187B]
    Track 2 accurately ripped (confidence 2) [7FF14485]
    Track 3 accurately ripped (confidence 2) [4B8EA1EF]
    Track 4 accurately ripped (confidence 2) [226B0D24]
    Track 5 accurately ripped (confidence 2) [2AF966C3]
    Track 6 accurately ripped (confidence 2) [AC4D5CEC]
    Track 7 accurately ripped (confidence 2) [22D7ACEB]
    Track 8 accurately ripped (confidence 2) [D8444F2F]

    All tracks accurately ripped

    End of status report

    ///////////////////////////////////////////////////////////////////////////////

    -----------------------

    DON'T MODIFY THIS FILE

    -----------------------

    PERFORMER: auCDtect Task Manager, ver. 1.6.0 RC1 build 1.6.0.1
    Copyright (c) 2008-2010 y-soft. All rights reserved
    http://y-soft.org

    ANALYZER: auCDtect: CD records authenticity detector, version 0.8.2
    Copyright (c) 2004 Oleg Berngardt. All rights reserved.
    Copyright (c) 2004 Alexander Djourik. All rights reserved.


    FILE: Acoustic Alchemy - Natural Elements.flac
    Size: 202188212 Hash: 286C741F22B38FB500FA28648F48EBEA Accuracy: -m0
    Conclusion: CDDA 100%
    Signature: 41B7BAB9FAA364324F2F02BB9774F27193189ED6

    ///////////////////////////////////////////////////////////////////////////////

    foobar2000 1.3.3 / Dynamic Range Meter 1.1.1
    log date: 2014-09-23 00:01:03

    --------------------------------------------------------------------------------
    Analyzed: Acoustic Alchemy / Natural Elements
    --------------------------------------------------------------------------------

    DR Peak RMS Duration Track
    --------------------------------------------------------------------------------
    DR12 -1.85 dB -17.43 dB 4:49 01-Drake's Drum
    DR14 -1.09 dB -17.00 dB 3:40 02-Overnight Sleeper
    DR13 -3.63 dB -19.32 dB 3:56 03-Natural Elements
    DR14 -1.24 dB -18.69 dB 3:51 04-Casino
    DR14 -1.06 dB -18.77 dB 5:17 05-If Only
    DR13 -3.00 dB -18.71 dB 3:00 06-Ballad For Kay
    DR16 -0.17 dB -18.41 dB 5:38 07-Evil The Weasel
    DR16 -0.57 dB -20.73 dB 4:47 08-Late Night Duke Street
    --------------------------------------------------------------------------------

    Number of tracks: 8
    Official DR value: DR14

    Samplerate: 44100 Hz
    Channels: 2
    Bits per sample: 16
    Bitrate: 771 kbps
    Codec: FLAC
    ================================================================================

    ///////////////////////////////////////////////////////////////////////////////////

    [свернуть]

    Natural Elements was the second major label release by Acoustic Alchemy from 1988. The shortest of all of the band's albums, only comprising eight tracks, Natural Elements set out to show what the title suggests: the organic side to Acoustic Alchemy's music. Points to note from this album include the title track, Natural Elements, which became the theme tune to long-running BBC gardening show, Gardener's World, and the re-recording of an early track, "Casino", now re-arranged to include piano and full percussion parts.


    Скрытый текст (вы должны войти под своим логином или зарегистрироваться и иметь 5 сообщение(ий)):
    У вас нет прав чтобы видеть скрытый текст, содержащийся здесь.

  18. 8 пользователя(ей) сказали cпасибо:

    Coroed (19.07.2018), kalach (19.07.2018), Lupus (18.10.2018), Puharik (19.07.2018), Riddler (21.07.2018), salimabi (20.07.2018), vlad56 (19.07.2018), Елизавета (20.07.2018)

  19. #10
    Супер модератор Array Аватар для aheron
    Регистрация
    11.06.2018
    Сообщений
    214
    Сказал(а) спасибо
    2,145
    Поблагодарили 1,066 раз(а)
    в 168 сообщениях
    Онлайн
    3 Дней 15 ч 53 мин 35 сек
    В среднем
    1 мин 46 сек
    Acoustic Alchemy - Positive Thinking ... (1998)





    Performer: Acoustic Alchemy
    Album: Positive Thinking ...
    Label: GRP Records. Made in US.
    Catalog #: GRD-9907
    Style: Smooth Jazz
    Year: 1998
    Format: FLAC (image + .cue)
    Bitrate: lossless
    Covers: in archive
    Amount of tracks: 10
    Size ZIP: ~ 333 mb

    ••• Tracklist •••

    01. Acoustic Alchemy - Passionelle [4:43]
    02. Acoustic Alchemy - Rainwatching W. I. [4:43]
    03. Acoustic Alchemy - Cadaques [5:52]
    04. Acoustic Alchemy - The Five Card Trick [5:13]
    05. Acoustic Alchemy - Positive Thinking [4:22]
    06. Acoustic Alchemy - The Better Shoes [5:30]
    07. Acoustic Alchemy - Vapour Trails [4:32]
    08. Acoustic Alchemy - Augustrasse 18 [6:48]
    09. Acoustic Alchemy - Time Gentlemen Please [4:40]
    10. Acoustic Alchemy - Limited Excess [6:13]
    --------------------------
    Total time: [52:35]
    [свернуть]

    ••• Log EAC + Log auCDtect + Dynamic Range Meter + Spectrum •••

    Exact Audio Copy V0.99 prebeta 5 from 4. May 2009

    EAC extraction logfile from 7. December 2009, 1:21

    Acoustic Alchemy / Positive Thinking ...

    Used drive : HL-DT-STDVDRAM GH22NS50 Adapter: 3 ID: 1

    Read mode : Secure
    Utilize accurate stream : Yes
    Defeat audio cache : Yes
    Make use of C2 pointers : No

    Read offset correction : 667
    Overread into Lead-In and Lead-Out : No
    Fill up missing offset samples with silence : Yes
    Delete leading and trailing silent blocks : No
    Null samples used in CRC calculations : Yes
    Used interface : Installed external ASPI interface

    Used output format : User Defined Encoder
    Selected bitrate : 128 kBit/s
    Quality : High
    Add ID3 tag : No
    Command line compressor : D:\Tools\Codecs\WavPack Frontend 2.0\wavpack.exe
    Additional command line options : -h %s %d


    TOC of the extracted CD

    Track | Start | Length | Start sector | End sector
    ---------------------------------------------------------
    1 | 0:00.00 | 4:42.60 | 0 | 21209
    2 | 4:42.60 | 4:43.37 | 21210 | 42471
    3 | 9:26.22 | 5:51.55 | 42472 | 68851
    4 | 15:18.02 | 5:12.45 | 68852 | 92296
    5 | 20:30.47 | 4:21.50 | 92297 | 111921
    6 | 24:52.22 | 5:29.55 | 111922 | 136651
    7 | 30:22.02 | 4:32.30 | 136652 | 157081
    8 | 34:54.32 | 6:47.68 | 157082 | 187674
    9 | 41:42.25 | 4:40.17 | 187675 | 208691
    10 | 46:22.42 | 6:13.25 | 208692 | 236691


    Range status and errors

    Selected range

    Filename F:\EAC\Acoustic Alchemy\Positive Thinking (1998)\Acoustic Alchemy - Positive Thinking ....wav

    Peak level 100.0 %
    Range quality 100.0 %
    Test CRC D67CA4C3
    Copy CRC D67CA4C3
    Copy OK

    No errors occurred


    AccurateRip summary

    Track 1 accurately ripped (confidence 1) [A8243A98]
    Track 2 not present in database
    Track 3 accurately ripped (confidence 1) [CDA06F32]
    Track 4 accurately ripped (confidence 1) [2F5CAC67]
    Track 5 accurately ripped (confidence 1) [855E31AD]
    Track 6 accurately ripped (confidence 1) [A857E765]
    Track 7 accurately ripped (confidence 1) [3C2C2271]
    Track 8 accurately ripped (confidence 1) [BFD2467E]
    Track 9 accurately ripped (confidence 1) [A5756725]
    Track 10 accurately ripped (confidence 1) [4A3D9811]

    9 track(s) accurately ripped
    1 track(s) not present in the AccurateRip database

    Some tracks could not be verified as accurate

    End of status report

    //////////////////////////////////////////////////////////////////////////////

    -----------------------

    DON'T MODIFY THIS FILE

    -----------------------

    PERFORMER: auCDtect Task Manager, ver. 1.6.0 RC1 build 1.6.0.1
    Copyright (c) 2008-2010 y-soft. All rights reserved
    http://y-soft.org

    ANALYZER: auCDtect: CD records authenticity detector, version 0.8.2
    Copyright (c) 2004 Oleg Berngardt. All rights reserved.
    Copyright (c) 2004 Alexander Djourik. All rights reserved.


    FILE: Acoustic Alchemy - Positive Thinking ....flac
    Size: 311995612 Hash: DF83C3C08E59867D671B89284003E1CF Accuracy: -m0
    Conclusion: CDDA 100%
    Signature: FADC168971BDADB02114A9D5B6290CD412521CC2

    //////////////////////////////////////////////////////////////////////////////

    foobar2000 1.3.3 / Dynamic Range Meter 1.1.1
    log date: 2014-09-22 23:48:08

    --------------------------------------------------------------------------------
    Analyzed: Acoustic Alchemy / Positive Thinking ...
    --------------------------------------------------------------------------------

    DR Peak RMS Duration Track
    --------------------------------------------------------------------------------
    DR9 -0.60 dB -12.04 dB 4:43 01-Passionelle
    DR10 -0.72 dB -12.46 dB 4:43 02-Rainwatching W. I.
    DR10 -0.04 dB -12.38 dB 5:52 03-Cadaques
    DR11 -0.51 dB -13.48 dB 5:13 04-The Five Card Trick
    DR9 -1.69 dB -13.85 dB 4:22 05-Positive Thinking
    DR11 -0.13 dB -12.73 dB 5:30 06-The Better Shoes
    DR11 -0.18 dB -12.85 dB 4:32 07-Vapour Trails
    DR10 -0.82 dB -13.43 dB 6:48 08-Augustrasse 18
    DR11 -0.58 dB -13.84 dB 4:40 09-Time Gentlemen Please
    DR10 0.00 dB -12.22 dB 6:13 10-Limited Excess
    --------------------------------------------------------------------------------

    Number of tracks: 10
    Official DR value: DR10

    Samplerate: 44100 Hz
    Channels: 2
    Bits per sample: 16
    Bitrate: 791 kbps
    Codec: FLAC
    ================================================================================

    ////////////////////////////////////////////////////////////////////////////

    [свернуть]

    Positive Thinking... is the tenth and final album recorded by Acoustic Alchemy for GRP in 1998. It marks a milestone in the band's history not only for the change of record company, but for the loss of founding member Nick Webb, who died during the recording of this album. His name appears in the credits for having contributed to every song, however Webb's parts in the recordings were done by longstanding sideman John Parsons.


    Скрытый текст (вы должны войти под своим логином или зарегистрироваться и иметь 5 сообщение(ий)):
    У вас нет прав чтобы видеть скрытый текст, содержащийся здесь.


  20. 8 пользователя(ей) сказали cпасибо:

    Coroed (21.07.2018), kalach (23.07.2018), Lupus (18.10.2018), Puharik (21.07.2018), Riddler (21.07.2018), salimabi (30.07.2018), vlad56 (24.07.2018), Елизавета (23.07.2018)

Страница 1 из 2 12 ПоследняяПоследняя

Информация о теме

Пользователи, просматривающие эту тему

Эту тему просматривают: 1 (пользователей: 0 , гостей: 1)

Социальные закладки

Социальные закладки

Ваши права

  • Вы не можете создавать новые темы
  • Вы не можете отвечать в темах
  • Вы не можете прикреплять вложения
  • Вы не можете редактировать свои сообщения
  •