Страница 2 из 2 ПерваяПервая 12
Показано с 11 по 18 из 18

Тема: Madonna

  1. #1
    Супер модератор Array Аватар для aheron
    Регистрация
    11.06.2018
    Сообщений
    179
    Сказал(а) спасибо
    1,615
    Поблагодарили 830 раз(а)
    в 133 сообщениях
    Онлайн
    2 Дней 20 ч 42 мин 34 сек
    В среднем
    1 мин 23 сек

    Madonna






    Мадо́нна Луи́за Чикко́не (англ. Madonna Louise Ciccone, род. 16 августа 1958, Бей-Сити, Мичиган, США) — американская певица, автор песен, продюсер, танцовщица, писательница, актриса, кинорежиссёр, сценарист, предприниматель и филантроп. Переехав в Нью-Йорк в 1978 году ради карьеры в танцевальной труппе, Мадонна сначала стала участницей рок-групп, а потом успешной сольной исполнительницей и автором песен.
    Мадонна прославилась постоянным «перепридумыванием» своей музыки и образов. Она стала одной из первых музыкантов-женщин, сделавших успешную карьеру на крупном лейбле и не потерявших творческий или финансовый контроль. Клипы певицы являются неотъемлемой частью MTV, добавляя в мейнстрим новые тематики текстов или образов видеоклипов. Песни Мадонны в основном получают положительные отзывы музыкальных критиков, несмотря на часто вызываемую в СМИ полемику относительно затрагиваемых в них тем — расизма, половой дискриминации, религии, политики, секса и насилия. Дебютный альбом Мадонны с одноимённым названием вышел в 1983 году на лейбле Sire и стал первым в череде успешных альбомов автора/певицы. На счету артистки рекордные 20 статуэток MTV Video Music Awards и 7 премий Грэмми, в том числе в престижных номинациях за альбомы Ray of Light (1998) и Confessions on a Dance Floor (2005). У певицы много рекордов чартов и хитов, достигших первого места главных музыкальных чартов, среди которых самыми успешными стали песни «Like a Virgin» (1984), «La Isla Bonita» (1986), «Like a Prayer» (1989), «Vogue» (1990), «Frozen» (1998), «Music» (2000), «Hung Up» (2005) и «4 Minutes» (2008).
    Певица считается самой коммерчески успешной исполнительницей в истории по версии Книги рекордов Гиннеса с 300 миллионами подтверждённых лицензионных продаж альбомов.. Time включил певицу в список «25 женщин прошлого столетия, обладающих наибольшей властью», оценив её влияние на современную музыку. Певица также является самой продаваемой рок-исполнительницей XX века по версии Американской ассоциации звукозаписывающих компаний[A 2] и второй по продажам певицей в Соединённых Штатах с 64.5 миллионами сертифицированных продаж альбомов. Billboard признаёт певицу самым успешным артистом за всю историю звукозаписи среди сольных певиц и певцов. По сведениям NY Post состояние певицы превышает 1 млрд долларов, но по мнению журнала Forbes эта цифра немного завышена и не учитывает пятидесятипроцентный налог. Концертный тур певицы 2008—2009 годов Sticky & Sweet Tour занимает первое место по доходам среди сольных исполнителей за всю историю. Известно признание Мадонны в музыке и кино — с конца 1980-х СМИ называют её «королевой поп-музыки», а в 2000 году антипремия Золотая малина назвала её худшей актрисой XX века. Фильмы Мадонны в качестве режиссёра и сценариста «Грязь и мудрость» и «МЫ. Верим в любовь» были разгромлены критикой и получили ограниченный прокат в кинотеатрах.

  2. 10 пользователя(ей) сказали cпасибо:

    Coroed (01.09.2018), iFF65 (07.09.2018), kalach (01.09.2018), Magician (15.09.2018), Puharik (01.09.2018), Riddler (01.09.2018), salimabi (02.09.2018), vlad56 (01.09.2018), Yuraved (02.09.2018), Елизавета (01.09.2018)

  3. #11
    Супер модератор Array Аватар для aheron
    Регистрация
    11.06.2018
    Сообщений
    179
    Сказал(а) спасибо
    1,615
    Поблагодарили 830 раз(а)
    в 133 сообщениях
    Онлайн
    2 Дней 20 ч 42 мин 34 сек
    В среднем
    1 мин 23 сек
    Madonna - Madonna (1983) [Japan 1985]





    Performer: Madonna
    Album: Madonna
    Label: Sire Records. Made in Japan.
    Catalog #: 32XD-318 (9-23867-2)
    Style: Synth-pop, Dance-pop
    Year: 1983 (1985 Press)
    Format: FLAC (image + .cue)
    Bitrate: lossless
    Covers: in archive
    Amount of tracks: 8
    Size ZIP: ~ 474 mb

    ••• Tracklist •••

    01. Madonna - Lucky Star [5:38]
    02. Madonna - Borderline [5:22]
    03. Madonna - Burning Up [3:46]
    04. Madonna - I Know It [3:47]
    05. Madonna - Holiday [6:11]
    06. Madonna - Think Of Me [4:56]
    07. Madonna - Physical Attraction [6:40]
    08. Madonna - Everybody [4:56]
    --------------------------
    Total time: [41:15]

    Personnel:
    ====================
    Madonna – lead vocals, background vocals, cowbell
    Tina B. – background vocals
    Christine Faith – background vocals
    Dean Gant – synthesizer, piano, electric piano
    Gwen Guthrie – background vocals
    Curtis Hudson – guitar
    Raymond Hudson – bass
    Anthony Jackson – electric bass
    Bashiri Johnson – percussion
    Reggie Lucas – guitar
    Bob Malach – tenor saxophone
    Paul Pesco – guitar
    Russell Powell - bass
    Ira Siegel – guitar
    Ed Walsh – synthesizer
    Brenda White – background vocals
    Norma Jean Wright – background vocals
    Fred Zarr – synthesizer, piano, drums, electric piano, Moog synthesizer, Fender Rhodes, Moog bass

    Notes:
    =====================
    Ⓟ 1982, 1983 Sire Records Company
    Ⓒ 1983 Sire Records Company

    Released - July 27, 1983
    Recorded - May 1982 – April 1983. Sigma Sound Studios (New York City)
    Producer – John "Jellybean" Benitez Mark Kamins Reggie Lucas
    Manufactured by Warner-Pioneer Corporation. Japan.
    [свернуть]

    ••• Log EAC + Log auCDtect + Dynamic Range Meter + Spectrum •••

    Exact Audio Copy V1.3 from 2. September 2016

    EAC extraction logfile from 27. December 2016, 23:47

    Madonna / Madonna

    Used drive : PLEXTOR DVDR PX-810SA Adapter: 1 ID: 0

    Read mode : Secure
    Utilize accurate stream : Yes
    Defeat audio cache : Yes
    Make use of C2 pointers : No

    Read offset correction : 48
    Overread into Lead-In and Lead-Out : No
    Fill up missing offset samples with silence : Yes
    Delete leading and trailing silent blocks : No
    Null samples used in CRC calculations : Yes
    Used interface : Installed external ASPI interface

    Used output format : User Defined Encoder
    Selected bitrate : 1024 kBit/s
    Quality : High
    Add ID3 tag : No
    Command line compressor : C:\Program Files (x86)\Exact Audio Copy\Flac\flac.exe
    Additional command line options : -8 -V -T "Date=%year%" -T "Genre=%genre%" -T "COMMENT=ripped by bvstudio®" %source%


    TOC of the extracted CD

    Track | Start | Length | Start sector | End sector
    ---------------------------------------------------------
    1 | 0:00.37 | 5:38.08 | 37 | 25394
    2 | 5:38.45 | 5:21.67 | 25395 | 49536
    3 | 11:00.37 | 3:45.40 | 49537 | 66451
    4 | 14:46.02 | 3:46.73 | 66452 | 83474
    5 | 18:33.00 | 6:10.52 | 83475 | 111276
    6 | 24:43.52 | 4:56.13 | 111277 | 133489
    7 | 29:39.65 | 6:39.70 | 133490 | 163484
    8 | 36:19.60 | 4:55.47 | 163485 | 185656


    Range status and errors

    Selected range

    Filename F:\Madonna - Discography\1983 - Madonna (1985 - Sire Records Company • Warner-Pioneer Corp. - Japan - 32XD-318)\Madonna - Madonna.wav

    Peak level 100.0 %
    Extraction speed 7.0 X
    Range quality 99.9 %
    Test CRC 2496EEF8
    Copy CRC 2496EEF8
    Copy OK

    No errors occurred


    AccurateRip summary

    Track 1 accurately ripped (confidence 12) [E58C4BC9] (AR v2)
    Track 2 accurately ripped (confidence 11) [DE24E55A] (AR v2)
    Track 3 accurately ripped (confidence 12) [0292A5EC] (AR v2)
    Track 4 accurately ripped (confidence 11) [77F644F0] (AR v2)
    Track 5 accurately ripped (confidence 11) [3B9CEADE] (AR v2)
    Track 6 accurately ripped (confidence 11) [5D48BD71] (AR v2)
    Track 7 accurately ripped (confidence 11) [4F604F2F] (AR v2)
    Track 8 accurately ripped (confidence 11) [09A2EB56] (AR v2)

    All tracks accurately ripped

    End of status report

    ---- CUETools DB Plugin V2.1.6

    [CTDB TOCID: AiMIHYKy3EQSXHoGxfbl.dlKiOA-] found
    Submit result: AiMIHYKy3EQSXHoGxfbl.dlKiOA- has been confirmed
    Track | CTDB Status
    1 | (19/19) Accurately ripped
    2 | (19/19) Accurately ripped
    3 | (19/19) Accurately ripped
    4 | (19/19) Accurately ripped
    5 | (18/19) Accurately ripped
    6 | (19/19) Accurately ripped
    7 | (18/19) Accurately ripped
    8 | (18/19) Accurately ripped


    ==== Log checksum CCE1B9FEF6D0D178F10E0F55ABAC00B22C8072DB26895CC599 A0AB5529684B14 ====

    ///////////////////////////////////////////////////////////////////////////////

    -----------------------

    DON'T MODIFY THIS FILE

    -----------------------

    PERFORMER: auCDtect Task Manager, ver. 1.6.0 RC1 build 1.6.0.1
    Copyright (c) 2008-2010 y-soft. All rights reserved
    http://y-soft.org

    ANALYZER: auCDtect: CD records authenticity detector, version 0.8.2
    Copyright (c) 2004 Oleg Berngardt. All rights reserved.
    Copyright (c) 2004 Alexander Djourik. All rights reserved.


    FILE: Madonna - Madonna.flac
    Size: 275027690 Hash: 8F2EE0B5E745BBBF9573E6199B9141D1 Accuracy: -m0
    Conclusion: MPEG 95%
    Signature: 04FB2F8D8771A29A8706D63920D1C520DB616A17

    ////////////////////////////////////////////////////////////////////////////

    foobar2000 1.3.14 / Dynamic Range Meter 1.1.1
    log date: 2016-12-28 00:47:07

    --------------------------------------------------------------------------------
    Analyzed: Madonna / Madonna
    --------------------------------------------------------------------------------

    DR Peak RMS Duration Track
    --------------------------------------------------------------------------------
    DR13 0.00 dB -14.91 dB 5:38 01-Lucky Star
    DR13 0.00 dB -15.33 dB 5:22 02-Borderline
    DR14 -0.10 dB -15.67 dB 3:46 03-Burning Up
    DR14 -1.11 dB -16.83 dB 3:47 04-I Know It
    DR14 0.00 dB -15.92 dB 6:11 05-Holiday
    DR16 0.00 dB -17.37 dB 4:56 06-Think Of Me
    DR15 -0.86 dB -17.11 dB 6:40 07-Physical Attraction
    DR17 -0.35 dB -18.90 dB 4:56 08-Everybody
    --------------------------------------------------------------------------------

    Number of tracks: 8
    Official DR value: DR14

    Samplerate: 44100 Hz
    Channels: 2
    Bits per sample: 16
    Bitrate: 889 kbps
    Codec: FLAC
    ================================================== ==============================

    [свернуть]

    Madonna — дебютный студийный альбом американской поп-певицы Мадонны, выпущенный 27 июля 1983 года студией Sire Records. Альбом был переиздан в 1985 году под названием The First Album для европейского рынка. В 2001 году студия Warner Bros. выпустила дополненную версию альбома с двумя бонус-ремиксами. В 1983 году Мадонна начала записывать свой одноимённый дебютный альбом с продюсером лейбла Warner Bros. Records Регги Лукасом, после того как её первый сингл «Everybody» стал хитом и лейбл Sire Records дал своё согласие на запись. Однако у неё было недостаточно материала для написания полноценного альбома. Лукас внёс в проект две новые песни, а Джон Бенитес, диджей в клубе Funhouse Disco, был приглашён, чтобы сделать на них ремиксы. Тем временем, из-за конфликта интересов, соавтор песни «Everybody» Стивен Брей продал композицию «Ain’t No Big Deal» другому лейблу, тем самым сделав её недоступной для проекта Мадонны. Общее звучание Madonna диссонирует в виде приподнятого синтетического диско, используя некоторые новые технологии того времени, как драм-машина Linn, бас Moog и синтезатор Oberheim OB-X. Песни на альбоме Мадонна исполняет в ярком, девичьем вокальном тембре, тексты повествуют о любви и отношениях. Современные критики восхваляют альбом, но Madonna был не очень высоко оценен некоторыми критиками, когда он был выпущен в 1983 году. В 2008 году американский журнал Entertainment Weekly отдал пластинке 5 место в рейтинге «100 лучших альбомов за последние 25 лет». Альбом был успешным в чартах, достигнув номера восемь в Billboard 200, а также попал в первую десятку хит-парадов в Австралии, Франции, Нидерландах, Новой Зеландии, Швеции и Великобритании. Он был сертифицирован как пятикратно платиновый Ассоциацией звукозаписывающей студии Америки (RIAA), с продажами более пяти миллионов копий на территории Соединенных Штатов. Во всем мире альбом продан в более 10 миллионов копий. Пять синглов было выпущено с альбома, «Holiday» стал первым известным синглом Мадонны, который вошёл в лучшую 20-ку чарта Billboard Hot 100, а также возглавил его, «Lucky Star» стал первым, попавшим в первую пятёрку. Альбом был поддержан шоу-программой The Virgin Tour 1985 года. После выхода альбома, Мадонна отмечала, что хотела укрепить свои позиции в музыкальной индустрии, опираясь на успех первого альбома. Она хотела взять полный самостоятельный контроль над работой, но Warner Bros. не был готов дать ей свободу творчества.


    Madonna - Borderline



    Скрытый текст (вы должны войти под своим логином или зарегистрироваться и иметь 5 сообщение(ий)):
    У вас нет прав чтобы видеть скрытый текст, содержащийся здесь.

  4. 6 пользователя(ей) сказали cпасибо:

    Coroed (11.09.2018), iFF65 (11.09.2018), kalach (12.09.2018), Puharik (11.09.2018), Riddler (12.09.2018), Елизавета (11.09.2018)

  5. #12
    Супер модератор Array Аватар для aheron
    Регистрация
    11.06.2018
    Сообщений
    179
    Сказал(а) спасибо
    1,615
    Поблагодарили 830 раз(а)
    в 133 сообщениях
    Онлайн
    2 Дней 20 ч 42 мин 34 сек
    В среднем
    1 мин 23 сек
    Madonna - MDNA (2012) [Japan]





    Performer: Madonna
    Album: MDNA
    Label: Interscope Records/Universal Music. Made in Japan.
    Catalog #: UICS-1247
    Style: Europop, Euro House
    Year: 2012
    Format: FLAC (image + .cue)
    Bitrate: lossless
    Covers: in archive
    Amount of tracks: 18
    Size ZIP: ~ 835 mb
    Upload: Облако Mail.ru

    ••• Tracklist •••

    01. Madonna - Girl Gone Wild [3:43]
    02. Madonna - Gang Bang [5:26]
    03. Madonna - I'm Addicted [4:34]
    04. Madonna - Turn Up The Radio [3:47]
    05. Madonna - Give Me All Your Luvin' (Featuring Nicki Minaj & M.I.A.) [3:23]
    06. Madonna - Some Girls [3:54]
    07. Madonna - Superstar [3:55]
    08. Madonna - I Don't Give A (Featuring Nicki Minaj) [4:19]
    09. Madonna - I'm A Sinner [4:52]
    10. Madonna - Love Spent [3:46]
    11. Madonna - Masterpiece [4:00]
    12. Madonna - Falling Free [5:14]
    13. Madonna - Beautiful Killer [3:49]
    14. Madonna - I Fucked Up [3:29]
    15. Madonna - B-Day Song (Featuring M.I.A.) [3:34]
    16. Madonna - Best Friend [3:20]
    17. Madonna - Give Me All Your Luvin' (Party Rock Remix) (Featuring LMFAO & Nicki Minaj) [4:02]
    18. Madonna - Girl Gone Wild (Justin Cognito Remix - Radio Edit) [3:37]
    --------------------------
    Total time: [01:12:45]


    Notes:
    =============================
    Japanese issue of MDNA includes all tracks issued in the "Deluxe Edition"s around the world but on one disc,
    and includes an exclusive remix of "Girl Gone Wild".
    Made in Japan.
    Includes black obi and lyric booklet in Japanese and English.

    Barcode and Other Identifiers:
    ==============================
    Rights Society: JASRAC
    Matrix / Runout: UICS-1247 1W V (4 Universal Music logos)
    Matrix / Runout (Masering SID Code): IFPI L244
    Other (Mould SID Code): IFPI 4011
    Barcode (as written on release): 4 988005 705426
    [свернуть]

    ••• Log EAC + Log auCDtect + Dynamic Range Meter + Spectrum •••

    Exact Audio Copy V0.99 prebeta 5 from 4. May 2009

    EAC extraction logfile from 10. April 2012, 17:05

    Madonna / MDNA (Japan Edition)

    Used drive : TSSTcorpDVDWBD TS-LB23A Adapter: 0 ID: 1

    Read mode : Secure
    Utilize accurate stream : Yes
    Defeat audio cache : Yes
    Make use of C2 pointers : No

    Read offset correction : 6
    Overread into Lead-In and Lead-Out : No
    Fill up missing offset samples with silence : Yes
    Delete leading and trailing silent blocks : No
    Null samples used in CRC calculations : Yes
    Used interface : Native Win32 interface for Win NT & 2000

    Used output format : User Defined Encoder
    Selected bitrate : 192 kBit/s
    Quality : High
    Add ID3 tag : No
    Command line compressor : C:\Program Files (x86)\Exact Audio Copy\Flac\flac.exe
    Additional command line options : -8 -A tukey(0.25) -A gauss(0.1875) -b 4096 -V -T "artist=%a" -T "title=%t" -T "album=%g" -T "date=%y" -T "tracknumber=%n" -T "genre=%m" %s --sector-align


    TOC of the extracted CD

    Track | Start | Length | Start sector | End sector
    ---------------------------------------------------------
    1 | 0:00.00 | 3:43.05 | 0 | 16729
    2 | 3:43.05 | 5:26.03 | 16730 | 41182
    3 | 9:09.08 | 4:33.38 | 41183 | 61695
    4 | 13:42.46 | 3:46.42 | 61696 | 78687
    5 | 17:29.13 | 3:22.57 | 78688 | 93894
    6 | 20:51.70 | 3:53.54 | 93895 | 111423
    7 | 24:45.49 | 3:55.01 | 111424 | 129049
    8 | 28:40.50 | 4:19.13 | 129050 | 148487
    9 | 32:59.63 | 4:52.29 | 148488 | 170416
    10 | 37:52.17 | 3:46.31 | 170417 | 187397
    11 | 41:38.48 | 3:59.48 | 187398 | 205370
    12 | 45:38.21 | 5:14.12 | 205371 | 228932
    13 | 50:52.33 | 3:49.31 | 228933 | 246138
    14 | 54:41.64 | 3:29.20 | 246139 | 261833
    15 | 58:11.09 | 3:33.52 | 261834 | 277860
    16 | 61:44.61 | 3:20.15 | 277861 | 292875
    17 | 65:05.01 | 4:02.29 | 292876 | 311054
    18 | 69:07.30 | 3:37.36 | 311055 | 327365


    Range status and errors

    Selected range

    Filename D:\Ripados\RUTracker.org\Madonna - MDNA (Japan Edition)\Madonna - MDNA (Japan Edition).wav

    Peak level 99.9 %
    Range quality 100.0 %
    Test CRC D1D4913F
    Copy CRC D1D4913F
    Copy OK

    No errors occurred


    AccurateRip summary

    Track 1 not present in database
    Track 2 not present in database
    Track 3 not present in database
    Track 4 not present in database
    Track 5 not present in database
    Track 6 not present in database
    Track 7 not present in database
    Track 8 not present in database
    Track 9 not present in database
    Track 10 not present in database
    Track 11 not present in database
    Track 12 not present in database
    Track 13 not present in database
    Track 14 not present in database
    Track 15 not present in database
    Track 16 not present in database
    Track 17 not present in database
    Track 18 not present in database

    None of the tracks are present in the AccurateRip database

    End of status report

    //////////////////////////////////////////////////////////////////////////////

    -----------------------

    DON'T MODIFY THIS FILE

    -----------------------

    PERFORMER: auCDtect Task Manager, ver. 1.6.0 RC1 build 1.6.0.1
    Copyright (c) 2008-2010 y-soft. All rights reserved
    http://y-soft.org

    ANALYZER: auCDtect: CD records authenticity detector, version 0.8.2
    Copyright (c) 2004 Oleg Berngardt. All rights reserved.
    Copyright (c) 2004 Alexander Djourik. All rights reserved.


    FILE: Madonna - MDNA (Japan Edition).flac
    Size: 520502105 Hash: 546BC5F5A1B12D194E126775BDB6CDAC Accuracy: -m0
    Conclusion: CDDA 100%
    Signature: 3AD84D4176A37328EB2F446BBB18C13FC83FE7CF

    ///////////////////////////////////////////////////////////////////////////////

    foobar2000 1.3 / Dynamic Range Meter 1.1.1
    log date: 2014-01-30 01:15:04

    --------------------------------------------------------------------------------
    Analyzed: Madonna / MDNA (Japan Edition)
    --------------------------------------------------------------------------------

    DR Peak RMS Duration Track
    --------------------------------------------------------------------------------
    DR6 -0.01 dB -7.90 dB 3:43 01-Girl Gone Wild
    DR6 -0.01 dB -7.65 dB 5:26 02-Gang Bang
    DR6 -0.01 dB -7.47 dB 4:34 03-I'm Addicted
    DR6 -0.01 dB -8.49 dB 3:47 04-Turn Up The Radio
    DR6 -0.01 dB -7.44 dB 3:23 05-Give Me All Your Luvin' (Featuring Nicki Minaj & M.I.A.)
    DR6 -0.01 dB -8.45 dB 3:54 06-Some Girls
    DR6 -0.01 dB -9.01 dB 3:55 07-Superstar
    DR7 -0.01 dB -9.58 dB 4:19 08-I Don't Give A (Featuring Nicki Minaj)
    DR6 -0.01 dB -8.23 dB 4:52 09-I'm A Sinner
    DR6 -0.01 dB -9.04 dB 3:46 10-Love Spent
    DR6 -0.01 dB -7.42 dB 4:00 11-Masterpiece
    DR8 -0.37 dB -11.91 dB 5:14 12-Falling Free
    DR7 -0.01 dB -9.43 dB 3:49 13-Beautiful Killer
    DR6 -0.01 dB -8.48 dB 3:29 14-I Fucked Up
    DR8 -0.11 dB -10.09 dB 3:34 15-B-Day Song (Featuring M.I.A.)
    DR6 -0.11 dB -8.70 dB 3:20 16-Best Friend
    DR6 -0.10 dB -7.77 dB 4:02 17-Give Me All Your Luvin' (Party Rock Remix) (Featuring LMFAO & Nicki Minaj)
    DR4 -0.01 dB -5.80 dB 3:37 18-Girl Gone Wild (Justin Cognito Remix - Radio Edit)
    --------------------------------------------------------------------------------

    Number of tracks: 18
    Official DR value: DR6

    Samplerate: 44100 Hz
    Channels: 2
    Bits per sample: 16
    Bitrate: 954 kbps
    Codec: FLAC
    ================================================== ==============================

    ///////////////////////////////////////////////////////////////////////////////

    [свернуть]

    MDNA — двенадцатый студийный альбом американской певицы и автора песен Мадонны, выпущенный 23 марта 2012 года компанией Interscope Records[1]. Это первый альбом Мадонны, выпущенный не компанией Warner Bros. Records, с которой певица сотрудничала с 1982 года. Помимо самой Мадонны, альбом продюсировали Але Бенасси, Бенни Бенасси, Demolition Crew, Free School, Michael Malih, Indiigo, Уильям Орбит и Мартин Сольвейг. Песни альбома затрагивают темы связанные с клубной жизнью, наркотиком MDMA, любовью к музыке, беззрасудной страстью, местью, а также с расставанием и разлукой. Альбом получил преимущественно позитивные отзывы от критиков и побывал на вершинах хит-парадов большинства стран, включая США, Великобританию, Австралию, Канаду, Италию и Испанию. В Австралии и Великобритании певица установила новый рекорд по количеству альбомов № 1 для сольного исполнителя, однако в США альбом совершил рекордное падение в процентах продаж на 2-й неделе (упав с 1-го на 8-е место Billboard 200). MDNA стал одним из двадцати самых продаваемых альбомов 2012 года, его продажи по всему миру составляют более двух миллионов копий. Он принёс Мадонне три победы из трёх номинаций на премии Billboard Music Awards 2013. Первым синглом стала композиция «Give Me All Your Luvin'», записанная при участии M.I.A. и Ники Минаж. Эта песня стала рекордным 38-м хитом первой десятки Billboard Hot 100 в США, побив предыдущее достижение певицы. Вторым синглом, выпущенным 2 марта 2012 года, стала песня «Girl Gone Wild», в клипе на которую снялись участники украинской группы Kazaky. В США сингл занял первую строчку в чарте Hot Dance Club Songs. Третьим синглом стала композиция «Turn Up the Radio». Перед релизом альбома 5 февраля 2012 года Мадонна выступила на игре «Super Bowl». В мае 2012 года она отправилась в турне MDNA Tour в поддержку альбома, ставшее самым длительным турне за всю карьеру артистки (88 концертов)


    Madonna - Girl Gone Wild



    Скрытый текст (вы должны войти под своим логином или зарегистрироваться и иметь 5 сообщение(ий)):
    У вас нет прав чтобы видеть скрытый текст, содержащийся здесь.

  6. 5 пользователя(ей) сказали cпасибо:

    Coroed (12.09.2018), kalach (12.09.2018), Puharik (13.09.2018), Riddler (12.09.2018), Елизавета (13.09.2018)

  7. #13
    Супер модератор Array Аватар для aheron
    Регистрация
    11.06.2018
    Сообщений
    179
    Сказал(а) спасибо
    1,615
    Поблагодарили 830 раз(а)
    в 133 сообщениях
    Онлайн
    2 Дней 20 ч 42 мин 34 сек
    В среднем
    1 мин 23 сек
    Madonna - Music (2000)





    Performer: Madonna
    Album: Music
    Label: Maverick Recording Company/Warner Bros. Records Inc.. Made in Germany.
    Catalog #: 9362-47865-2
    Style: Downtempo, Ballad, Synth-pop, Acoustic
    Year: 2000
    Format: FLAC (image + .cue)
    Bitrate: lossless
    Covers: in archive
    Amount of tracks: 11
    Size ZIP: ~ 625 mb

    ••• Tracklist •••

    01. Madonna - Music [3:45]
    02. Madonna - Impressive Instant [3:38]
    03. Madonna - Runaway Lover [4:47]
    04. Madonna - I Deserve It [4:24]
    05. Madonna - Amazing [3:43]
    06. Madonna - Nobody's Perfect [4:59]
    07. Madonna - Don't Tell Me [4:40]
    08. Madonna - What It Feels Like For A Girl [4:44]
    09. Madonna - Paradise (Not for Me) [6:34]
    10. Madonna - Gone [3:29]
    11. Madonna - American Pie [4:36]
    --------------------------
    Total time: [49:18]

    Personnel:
    =====================
    Madonna – vocals, guitar, producer
    Steve Sidelnyk – drums
    Guy Sigsworth – guitar, keyboard, programming, producer
    William Orbit – keyboard, guitar, programming, backing vocals
    Mirwais Ahmadzaï – producer, keyboard, guitar, programming
    Mark "Spike" Stent – producer, mixing
    Jake Davies – engineer
    Mark Endert – engineer
    Geoff Foster – engineer, string engineer
    Sean Spuehler – engineer, programming
    Tim Lambert – assistant engineer
    Chris Ribando – assistant engineer
    Dan Vickers – assistant engineer
    Tim Young – mastering
    Michel Colombier – string arrangement
    Kevin Reagan – art direction, design
    Matthew Lindauer – design
    Jean-Baptiste Mondino – photography

    Notes:
    =====================
    Recorded at Sarm East and Sarm West, London; Guerilla Beach, Los Angeles and The Hit Factory, NYC.

    Mixed at Olympic Studios, London.
    Tracks 1 to 10 mastered at Metropolis Studios, London.
    Track 11 mastered at Master Disk, NYC.

    Strings recorded at AIR Lyndhurst Studios, UK.

    Track 8 includes an excerpt from "The Cement Garden", courtesy of Charlotte Gainsbourg and Constantin Film AG.

    © ℗ 2000 Warner Bros. Records Inc.
    Marketed by Warner Bros. Records Inc., A Time Warner Company.
    Made in Germany.
    Producer - Madonna, Mirwais Ahmadzaï, William Orbit, Guy Sigsworth, Mark "Spike" Stent, Talvin Singh.
    [свернуть]

    ••• Log EAC + Log auCDtect + Dynamic Range Meter + Spectrum •••

    Exact Audio Copy V1.3 from 2. September 2016

    EAC extraction logfile from 24. December 2016, 23:21

    Madonna / Music

    Used drive : PLEXTOR DVDR PX-810SA Adapter: 1 ID: 0

    Read mode : Secure
    Utilize accurate stream : Yes
    Defeat audio cache : Yes
    Make use of C2 pointers : No

    Read offset correction : 48
    Overread into Lead-In and Lead-Out : No
    Fill up missing offset samples with silence : Yes
    Delete leading and trailing silent blocks : No
    Null samples used in CRC calculations : Yes
    Used interface : Installed external ASPI interface

    Used output format : User Defined Encoder
    Selected bitrate : 1024 kBit/s
    Quality : High
    Add ID3 tag : No
    Command line compressor : C:\Program Files (x86)\Exact Audio Copy\Flac\flac.exe
    Additional command line options : -8 -V -T "Date=%year%" -T "Genre=%genre%" -T "COMMENT=ripped by bvstudio®" %source%


    TOC of the extracted CD

    Track | Start | Length | Start sector | End sector
    ---------------------------------------------------------
    1 | 0:00.00 | 3:45.32 | 0 | 16906
    2 | 3:45.32 | 3:37.43 | 16907 | 33224
    3 | 7:23.00 | 4:47.17 | 33225 | 54766
    4 | 12:10.17 | 4:23.43 | 54767 | 74534
    5 | 16:33.60 | 3:43.15 | 74535 | 91274
    6 | 20:17.00 | 4:58.70 | 91275 | 113694
    7 | 25:15.70 | 4:40.00 | 113695 | 134694
    8 | 29:55.70 | 4:43.67 | 134695 | 155986
    9 | 34:39.62 | 6:33.40 | 155987 | 185501
    10 | 41:13.27 | 3:29.05 | 185502 | 201181
    11 | 44:42.32 | 4:36.20 | 201182 | 221901


    Range status and errors

    Selected range

    Filename F:\Madonna - Discography\2000 - Music (2000 - Maverick Recording Company • Warner Bros. Records Inc. - Germany - 9362-47865-2)\Madonna - Music.wav

    Peak level 100.0 %
    Extraction speed 6.8 X
    Range quality 100.0 %
    Test CRC 7F4FF5BC
    Copy CRC 7F4FF5BC
    Copy OK

    No errors occurred


    AccurateRip summary

    Track 1 accurately ripped (confidence 200) [2492B6F2] (AR v2)
    Track 2 accurately ripped (confidence 200) [C9CA4E96] (AR v2)
    Track 3 accurately ripped (confidence 200) [E18E0B38] (AR v2)
    Track 4 accurately ripped (confidence 200) [0F73904B] (AR v2)
    Track 5 accurately ripped (confidence 200) [5FF5B40D] (AR v2)
    Track 6 accurately ripped (confidence 200) [C754D765] (AR v2)
    Track 7 accurately ripped (confidence 200) [69A96DD6] (AR v2)
    Track 8 accurately ripped (confidence 200) [ED2AF4F8] (AR v2)
    Track 9 accurately ripped (confidence 200) [10EF6319] (AR v2)
    Track 10 accurately ripped (confidence 200) [21FAD867] (AR v2)
    Track 11 accurately ripped (confidence 200) [D0B800C6] (AR v2)

    All tracks accurately ripped

    End of status report

    ---- CUETools DB Plugin V2.1.6

    [CTDB TOCID: dkPTDKrZoNBaRSB_RO6tPl3Ih2k-] found
    Submit result: dkPTDKrZoNBaRSB_RO6tPl3Ih2k- has been confirmed
    Track | CTDB Status
    1 | (1585/1617) Accurately ripped
    2 | (1591/1617) Accurately ripped
    3 | (1597/1617) Accurately ripped
    4 | (1594/1617) Accurately ripped
    5 | (1587/1617) Accurately ripped
    6 | (1587/1617) Accurately ripped
    7 | (1590/1617) Accurately ripped
    8 | (1592/1617) Accurately ripped
    9 | (1590/1617) Accurately ripped
    10 | (1582/1617) Accurately ripped
    11 | (1579/1617) Accurately ripped, or (4/1617) differs in 7449 samples @04:34:17-04:34:24


    ==== Log checksum 40A349AC8E13BA01A60FDAAF65EABDC7423A07B7A4F250BDDF F075E871577B20 ====

    ///////////////////////////////////////////////////////////////////////////////

    -----------------------

    DON'T MODIFY THIS FILE

    -----------------------

    PERFORMER: auCDtect Task Manager, ver. 1.6.0 RC1 build 1.6.0.1
    Copyright (c) 2008-2010 y-soft. All rights reserved
    http://y-soft.org

    ANALYZER: auCDtect: CD records authenticity detector, version 0.8.2
    Copyright (c) 2004 Oleg Berngardt. All rights reserved.
    Copyright (c) 2004 Alexander Djourik. All rights reserved.


    FILE: Madonna - Music.flac
    Size: 335246316 Hash: 1343A8D354B06651DE95AB166E01CFA5 Accuracy: -m0
    Conclusion: CDDA 100%
    Signature: F919FB67EC42DAF8C8B17A01E5CC9A1424E8C9E3

    ////////////////////////////////////////////////////////////////////////////////

    foobar2000 1.3.14 / Dynamic Range Meter 1.1.1
    log date: 2016-12-25 00:27:49

    --------------------------------------------------------------------------------
    Analyzed: Madonna / Music
    --------------------------------------------------------------------------------

    DR Peak RMS Duration Track
    --------------------------------------------------------------------------------
    DR8 0.00 dB -9.65 dB 3:45 01-Music
    DR7 -0.01 dB -9.48 dB 3:38 02-Impressive Instant
    DR8 0.00 dB -9.43 dB 4:47 03-Runaway Lover
    DR9 -0.24 dB -10.99 dB 4:24 04-I Deserve It
    DR7 0.00 dB -8.99 dB 3:43 05-Amazing
    DR9 0.00 dB -11.10 dB 4:59 06-Nobody's Perfect
    DR9 0.00 dB -10.74 dB 4:40 07-Don't Tell Me
    DR7 -0.43 dB -9.29 dB 4:44 08-What It Feels Like For A Girl
    DR8 0.00 dB -10.35 dB 6:34 09-Paradise (Not for Me)
    DR9 0.00 dB -11.41 dB 3:29 10-Gone
    DR7 0.00 dB -9.90 dB 4:36 11-American Pie
    --------------------------------------------------------------------------------

    Number of tracks: 11
    Official DR value: DR8

    Samplerate: 44100 Hz
    Channels: 2
    Bits per sample: 16
    Bitrate: 906 kbps
    Codec: FLAC
    ================================================== ==============================

    /////////////////////////////////////////////////////////////////////////////////

    [свернуть]

    «Music» (с англ. — «Музыка») — восьмой студийный альбом американской певицы Мадонны, выпущенный 18 сентября 2000 года. Как и предыдущий альбом, Music представляет собой электронную запись, на которой содержится значительное число выдержанных в быстром темпе композиций с явно европейским танцевальным звучанием, которое было достигнуто благодаря сотрудничеству певицы с французским электронным музыкантом Мирвэ. Мадонна также продолжила работу с главным продюсером Ray of Light Уильямом Орбитом, который выступил сопродюсером при записи четырёх (включая «American Pie») композиций. Символично, что движение в сторону европейских музыкальных вкусов проявилось и в том, что впервые за всю карьеру певицы запись не была полностью осуществлена в США — основная масса материала была записана на студии «Sarm West and East Studios» в Лондоне. При этом стоит отметить, что оформление альбома выдержано в явно американском стиле — Мадонна предстает в образе ковбоя с гитарой, видеоработы на песни с альбома были также выполнены в типичной американской стилистике.


    Madonna - Music



    Скрытый текст (вы должны войти под своим логином или зарегистрироваться и иметь 5 сообщение(ий)):
    У вас нет прав чтобы видеть скрытый текст, содержащийся здесь.

  8. 5 пользователя(ей) сказали cпасибо:

    Coroed (13.09.2018), kalach (14.09.2018), Puharik (13.09.2018), Riddler (14.09.2018), Елизавета (13.09.2018)

  9. #14
    Супер модератор Array Аватар для aheron
    Регистрация
    11.06.2018
    Сообщений
    179
    Сказал(а) спасибо
    1,615
    Поблагодарили 830 раз(а)
    в 133 сообщениях
    Онлайн
    2 Дней 20 ч 42 мин 34 сек
    В среднем
    1 мин 23 сек
    Madonna - Ray Of Light (1998)





    Performer: Madonna
    Album: Ray Of Light
    Label: Maverick. Made in Germany.
    Catalog #: 9362-46847-2
    Style: Pop, House, Techno, Downtempo
    Year: 1998
    Format: FLAC (image + .cue)
    Bitrate: lossless
    Covers: in archive
    Amount of tracks: 13
    Size ZIP: ~ 531 mb

    ••• Tracklist •••

    01. Madonna - Drowned World/Substitute For Love [5:09]
    02. Madonna - Swim [5:01]
    03. Madonna - Ray Of Light [5:21]
    04. Madonna - Candy Perfume Girl [4:37]
    05. Madonna - Skin [6:22]
    06. Madonna - Nothing Really Matters [4:27]
    07. Madonna - Sky Fits Heaven [4:48]
    08. Madonna - Shanti/Ashtangi [4:29]
    09. Madonna - Frozen [6:13]
    10. Madonna - The Power Of Good-Bye [4:12]
    11. Madonna - To Have And Not To Hold [5:23]
    12. Madonna - Little Star [5:18]
    13. Madonna - Mer Girl [5:32]
    --------------------------
    Total time: [01:06:50]

    Notes:
    =====================
    ℗ & © 1998 Warner Bros. Records Inc.
    Made in Germany by Warner Music Manufacturing Europe.

    Recorded at Larrabee Studios North, Universal City, California.
    Mastered at Sterling Sound, New York.

    Track 1 contains a sample of "Why I Follow The Tigers" performed by the San Sebastian Strings.
    Track 8 adapted from text by Shankra Charya taken from the Yoga Taravali. Additional text is credited to Traditional. Translation by Vyass Houston & Eddie Stern.
    Track 13 contains an interpolation of and elements from the song "Space" written and performed by Gabor Szabo.
    [свернуть]

    ••• Log EAC + Log auCDtect + Dynamic Range Meter + Spectrum •••

    Exact Audio Copy V1.0 beta 3 from 29. August 2011

    EAC extraction logfile from 16. January 2013, 15:28

    Madonna / Ray Of Light

    Used drive : Optiarc DVD RW AD-5280S Adapter: 2 ID: 1

    Read mode : Secure
    Utilize accurate stream : Yes
    Defeat audio cache : Yes
    Make use of C2 pointers : No

    Read offset correction : 48
    Overread into Lead-In and Lead-Out : No
    Fill up missing offset samples with silence : Yes
    Delete leading and trailing silent blocks : No
    Null samples used in CRC calculations : Yes
    Used interface : Installed external ASPI interface

    Used output format : Internal WAV Routines
    Sample format : 44.100 Hz; 16 Bit; Stereo


    TOC of the extracted CD

    Track | Start | Length | Start sector | End sector
    ---------------------------------------------------------
    1 | 0:00.00 | 5:08.72 | 0 | 23171
    2 | 5:08.72 | 5:00.45 | 23172 | 45716
    3 | 10:09.42 | 5:20.53 | 45717 | 69769
    4 | 15:30.20 | 4:36.57 | 69770 | 90526
    5 | 20:07.02 | 6:21.50 | 90527 | 119151
    6 | 26:28.52 | 4:26.58 | 119152 | 139159
    7 | 30:55.35 | 4:47.67 | 139160 | 160751
    8 | 35:43.27 | 4:29.03 | 160752 | 180929
    9 | 40:12.30 | 6:12.52 | 180930 | 208881
    10 | 46:25.07 | 4:12.23 | 208882 | 227804
    11 | 50:37.30 | 5:22.67 | 227805 | 252021
    12 | 56:00.22 | 5:18.35 | 252022 | 275906
    13 | 61:18.57 | 5:31.60 | 275907 | 300791


    Range status and errors

    Selected range

    Filename C:\rip-flacmusic.ru\Madonna - Ray Of Light.wav

    Peak level 99.8 %
    Extraction speed 4.4 X
    Range quality 99.9 %
    Test CRC 1135E86B
    Copy CRC 1135E86B
    Copy OK

    No errors occurred


    AccurateRip summary

    Track 1 accurately ripped (confidence 60) [50D28199] (AR v2)
    Track 2 accurately ripped (confidence 61) [6F3D3961] (AR v2)
    Track 3 accurately ripped (confidence 60) [6B08278A] (AR v2)
    Track 4 accurately ripped (confidence 60) [635A30F1] (AR v2)
    Track 5 accurately ripped (confidence 60) [5F275769] (AR v2)
    Track 6 accurately ripped (confidence 59) [71B622C1] (AR v2)
    Track 7 accurately ripped (confidence 59) [0B3AB678] (AR v2)
    Track 8 accurately ripped (confidence 59) [B43D262E] (AR v2)
    Track 9 accurately ripped (confidence 60) [FB8F4A63] (AR v2)
    Track 10 accurately ripped (confidence 61) [F785A39D] (AR v2)
    Track 11 accurately ripped (confidence 61) [614A751E] (AR v2)
    Track 12 accurately ripped (confidence 59) [BE3EC3CC] (AR v2)
    Track 13 accurately ripped (confidence 56) [8FB22B6C] (AR v2)

    All tracks accurately ripped

    End of status report

    ==== Log checksum F34610AA7A577C72EE8E80542A2114ECEF1535532F7F83B979C9A43C9E6F3A80 ====

    ///////////////////////////////////////////////////////////////////////////////

    -----------------------

    DON'T MODIFY THIS FILE

    -----------------------

    PERFORMER: auCDtect Task Manager, ver. 1.6.0 RC1 build 1.6.0.1
    Copyright (c) 2008-2010 y-soft. All rights reserved
    http://y-soft.org

    ANALYZER: auCDtect: CD records authenticity detector, version 0.8.2
    Copyright (c) 2004 Oleg Berngardt. All rights reserved.
    Copyright (c) 2004 Alexander Djourik. All rights reserved.


    FILE: Madonna - Ray Of Light.flac
    Size: 415552361 Hash: AF7E561AA6948DD6B5B99B6A11C8620F Accuracy: -m0
    Conclusion: CDDA 99%
    Signature: F8DE6E355535AE4391F783360BE0B2424727291C

    ////////////////////////////////////////////////////////////////////////////////

    foobar2000 1.3 / Dynamic Range Meter 1.1.1
    log date: 2014-02-03 19:42:02

    --------------------------------------------------------------------------------
    Analyzed: Madonna / Ray Of Light
    --------------------------------------------------------------------------------

    DR Peak RMS Duration Track
    --------------------------------------------------------------------------------
    DR7 -0.01 dB -9.57 dB 5:09 01-Drowned World/Substitute For Love
    DR8 -0.01 dB -9.95 dB 5:01 02-Swim
    DR7 -0.01 dB -8.80 dB 5:21 03-Ray Of Light
    DR7 -0.01 dB -9.52 dB 4:37 04-Candy Perfume Girl
    DR7 -0.01 dB -9.36 dB 6:22 05-Skin
    DR7 -0.01 dB -9.02 dB 4:27 06-Nothing Really Matters
    DR7 -0.01 dB -8.14 dB 4:48 07-Sky Fits Heaven
    DR6 -0.01 dB -8.56 dB 4:29 08-Shanti/Ashtangi
    DR8 -0.01 dB -12.10 dB 6:13 09-Frozen
    DR8 -0.01 dB -9.85 dB 4:12 10-The Power Of Good-Bye
    DR8 -0.01 dB -9.66 dB 5:23 11-To Have And Not To Hold
    DR8 -0.01 dB -10.01 dB 5:18 12-Little Star
    DR11 -0.02 dB -16.06 dB 5:32 13-Mer Girl
    --------------------------------------------------------------------------------

    Number of tracks: 13
    Official DR value: DR8

    Samplerate: 44100 Hz
    Channels: 2
    Bits per sample: 16
    Bitrate: 829 kbps
    Codec: FLAC
    ================================================================================

    /////////////////////////////////////////////////////////////////////////////////

    [свернуть]

    Ray of Light (с англ. — «Луч света») — седьмой студийный альбом американской певицы Мадонны, выпущенный в 1998 году. Основным продюсером альбома выступил Уильям Орбит — электронный музыкант, с которым Мадонна уже сотрудничала при записи ремиксов на свои композиции, однако никогда прежде не создавала полноценных записей. В продюсировании альбома также принимал существенное участие Патрик Леонард, чьё длительное сотрудничество с певицей завершилось записью «Ray of Light». Альбом стал самой успешной записью Мадонны в 1990-е (в мире было продано порядка 16 миллионов копий[1]) и получил огромное число положительных отзывов критиков. Многие поклонники певицы также считают Ray of Light одним из лучших альбомов певицы. При записи Ray of Light были использованы многие инновационные музыкальные приёмы. В композициях с альбома Мадонна затрагивает темы материнства и духовности. Вокал певицы также стал заметно лучше: сказались уроки вокала, которые она брала при съемках киномюзикла «Эвита». В 1999 году Мадонна с альбомом Ray of Light удостоилась четырёх премий Грэмми, в том числе «Лучший поп-альбом» и «Лучшая танцевальная запись».


    Madonna - Frozen



    Скрытый текст (вы должны войти под своим логином или зарегистрироваться и иметь 5 сообщение(ий)):
    У вас нет прав чтобы видеть скрытый текст, содержащийся здесь.

  10. 5 пользователя(ей) сказали cпасибо:

    Coroed (15.09.2018), kalach (15.09.2018), Puharik (15.09.2018), Riddler (15.09.2018), Елизавета (16.09.2018)

  11. #15
    Супер модератор Array Аватар для aheron
    Регистрация
    11.06.2018
    Сообщений
    179
    Сказал(а) спасибо
    1,615
    Поблагодарили 830 раз(а)
    в 133 сообщениях
    Онлайн
    2 Дней 20 ч 42 мин 34 сек
    В среднем
    1 мин 23 сек
    Madonna - Rebel Heart [2CD] (2015) [Super Deluxe Edition, Japan]





    Performer: Madonna
    Album: Rebel Heart
    Label: Boy Toy/Live Nation Worldwide/Interscope Records. Made in Japan.
    Catalog #: UICS-9148/9
    Style: Europop, Dance-pop, Pop Rap, House, Electro
    Year: 2015 (2xCD, Super Deluxe Edition)
    Format: FLAC (image + .cue)
    Bitrate: lossless
    Covers: in archive
    Amount of tracks: 20+6
    Size ZIP: ~ 868 mb

    ••• Tracklist •••

    CD1
    -------------------------
    01. Madonna - Living For Love [3:39]
    02. Madonna - Devil Pray [4:06]
    03. Madonna - Ghosttown [4:10]
    04. Madonna - Unapologetic Bitch [3:51]
    05. Madonna - Illuminati [3:45]
    06. Madonna - Bitch I'm Madonna (feat. Nicki Minaj) [3:47]
    07. Madonna - Hold Tight [3:37]
    08. Madonna - Joan Of Arc [4:02]
    09. Madonna - Iconic (feat. Chance The Rapper & Mike Tyson) [4:33]
    10. Madonna - HeartBreakCity [3:34]
    11. Madonna - Body Shop [3:39]
    12. Madonna - Holy Water [4:09]
    13. Madonna - Inside Out [4:24]
    14. Madonna - Wash All Over Me [4:01]
    15. Madonna - Best Night [3:34]
    16. Madonna - Veni Vidi Vici (feat. Nas) [4:40]
    17. Madonna - S.E.X. [4:11]
    18. Madonna - Messiah [3:22]
    19. Madonna - Rebel Heart [3:22]
    20. Madonna - Living For Love (Dirty Pop Remix) [4:58]
    --------------------------
    Total time: [1:19:24]

    CD2
    -------------------------
    01. Madonna - Beautiful Scars [4:19]
    02. Madonna - Borrowed Time [3:25]
    03. Madonna - Addicted [3:33]
    04. Madonna - Graffiti Heart [3:39]
    05. Madonna - Living For Love (PAULO & Jackinsky Full Vocal Mix) [7:14]
    06. Madonna - Living For Love (Funk Generation & H3dRush Dub) [6:07]
    --------------------------
    Total time: [28:16]

    Performers:
    ====================
    Madonna – vocals
    Nicki Minaj – vocals
    Chance the Rapper – vocals
    Mike Tyson – vocals
    Nas – vocals
    DJ Dahi – additional vocals (outro)
    MNEK – background vocals
    Santell – background vocals
    London Community Gospel Choir – background vocals
    Jason Evigan – background vocals
    Salem Al Fakir – background vocals
    Vincent Pontare – background vocals, additional background vocals
    Toby Gad – additional background vocals
    MoZella – additional background vocals




    Notes:
    =====================
    Phonographic Copyright (p) – Boy Toy, Inc.
    Copyright (c) – Boy Toy, Inc.
    Licensed To – Live Nation Worldwide, Inc.
    Licensed To – Interscope Records
    Record Company – Universal International
    Marketed By – Universal Music LLC
    Distributed By – Universal Music LLC

    ℗© 2014 Boy Toy, Inc. Exclusively licensed to Live Nation Worldwide, Inc. Exclusively licensed to Interscope Records, a division of UMG Recordings, Inc.
    Universal International, a Universal Music Company.
    Marketed & Distributed by Universal Music LLC
    Made in Japan

    Issued in a deluxe double-disc Digipak. Comes with obi and booklet with lyrics in English and Japanese.
    Parental Advisory logo is printed on the sleeve.

    Track 1-20 is denoted as a bonus track for Japan.
    [свернуть]

    ••• Log EAC + Log auCDtect + Dynamic Range Meter + Spectrum •••

    Exact Audio Copy V1.0 beta 3 from 29. August 2011

    Отчёт EAC об извлечении, выполненном 23. марта 2015, 21:21

    Madonna / Rebel Heart (Super Deluxe Japan Edition)

    Дисковод: TSSTcorpCDDVDW TS-L632H Adapter: 1 ID: 0

    Режим чтения : Достоверность
    Использование точного потока : Да
    Отключение кэша аудио : Да
    Использование указателей C2 : Нет

    Коррекция смещения при чтении : 6
    Способность читать области Lead-in и Lead-out : Нет
    Заполнение пропущенных сэмплов тишиной : Да
    Удаление блоков с тишиной в начале и конце : Нет
    При вычислениях CRC использовались нулевые сэмплы : Да
    Интерфейс : Встроенный Win32-интерфейс для Win NT/2000

    Выходной формат : Пользовательский кодировщик
    Выбранный битрейт : 128 kBit/s
    Качество : Высокий
    Добавление ID3-тега : Нет
    Утилита сжатия : C:\Program Files\Exact Audio Copy\Flac\flac.exe
    Дополнительные параметры : -V -8 -T "Date=%year%" -T "Genre=%genre%" %source%


    TOC извлечённого CD

    Трек | Старт | Длительность | Начальный сектор | Конечный сектор
    ---------------------------------------------------------------------
    1 | 0:00.00 | 3:38.54 | 0 | 16403
    2 | 3:38.54 | 4:05.56 | 16404 | 34834
    3 | 7:44.35 | 4:09.45 | 34835 | 53554
    4 | 11:54.05 | 3:51.18 | 53555 | 70897
    5 | 15:45.23 | 3:44.46 | 70898 | 87743
    6 | 19:29.69 | 3:47.36 | 87744 | 104804
    7 | 23:17.30 | 3:37.31 | 104805 | 121110
    8 | 26:54.61 | 4:01.60 | 121111 | 139245
    9 | 30:56.46 | 4:33.21 | 139246 | 159741
    10 | 35:29.67 | 3:33.50 | 159742 | 175766
    11 | 39:03.42 | 3:39.30 | 175767 | 192221
    12 | 42:42.72 | 4:09.10 | 192222 | 210906
    13 | 46:52.07 | 4:23.43 | 210907 | 230674
    14 | 51:15.50 | 4:00.68 | 230675 | 248742
    15 | 55:16.43 | 3:33.44 | 248743 | 264761
    16 | 58:50.12 | 4:39.47 | 264762 | 285733
    17 | 63:29.59 | 4:11.37 | 285734 | 304595
    18 | 67:41.21 | 3:22.22 | 304596 | 319767
    19 | 71:03.43 | 3:22.04 | 319768 | 334921
    20 | 74:25.47 | 4:58.28 | 334922 | 357299


    Характеристики диапазона извлечения и сообщения об ошибках

    Выбранный диапазон

    Имя файла C:\My Rips\Audio\Madonna\CD1\Madonna - Rebel Heart (Super Deluxe Japan Edition).wav

    Пиковый уровень 100.0 %
    Скорость извлечения 4.8 X
    Качество диапазона 100.0 %
    CRC теста 553E8AEE
    CRC копии 553E8AEE
    Копирование... OK

    Ошибок не произошло


    AccurateRip: сводка

    Трек 1 отсутствует в базе данных
    Трек 2 отсутствует в базе данных
    Трек 3 отсутствует в базе данных
    Трек 4 отсутствует в базе данных
    Трек 5 отсутствует в базе данных
    Трек 6 отсутствует в базе данных
    Трек 7 отсутствует в базе данных
    Трек 8 отсутствует в базе данных
    Трек 9 отсутствует в базе данных
    Трек 10 отсутствует в базе данных
    Трек 11 отсутствует в базе данных
    Трек 12 отсутствует в базе данных
    Трек 13 отсутствует в базе данных
    Трек 14 отсутствует в базе данных
    Трек 15 отсутствует в базе данных
    Трек 16 отсутствует в базе данных
    Трек 17 отсутствует в базе данных
    Трек 18 отсутствует в базе данных
    Трек 19 отсутствует в базе данных
    Трек 20 отсутствует в базе данных

    Ни одного трека нет в базе AccurateRip

    Конец отчёта

    ==== Контрольная сумма отчёта 6BEA5A26AE990551354752BBA3661007C9267BF973A89AE5DF 8E19127A5C84D9 ====

    ////////////////////////////////////////////////////////////////////////////////////////////////////

    Exact Audio Copy V1.0 beta 3 from 29. August 2011

    Отчёт EAC об извлечении, выполненном 23. марта 2015, 21:43

    Madonna / Rebek Heart (Super Deluxe Japan Edition)

    Дисковод: TSSTcorpCDDVDW TS-L632H Adapter: 1 ID: 0

    Режим чтения : Достоверность
    Использование точного потока : Да
    Отключение кэша аудио : Да
    Использование указателей C2 : Нет

    Коррекция смещения при чтении : 6
    Способность читать области Lead-in и Lead-out : Нет
    Заполнение пропущенных сэмплов тишиной : Да
    Удаление блоков с тишиной в начале и конце : Нет
    При вычислениях CRC использовались нулевые сэмплы : Да
    Интерфейс : Встроенный Win32-интерфейс для Win NT/2000

    Выходной формат : Пользовательский кодировщик
    Выбранный битрейт : 128 kBit/s
    Качество : Высокий
    Добавление ID3-тега : Нет
    Утилита сжатия : C:\Program Files\Exact Audio Copy\Flac\flac.exe
    Дополнительные параметры : -V -8 -T "Date=%year%" -T "Genre=%genre%" %source%


    TOC извлечённого CD

    Трек | Старт | Длительность | Начальный сектор | Конечный сектор
    ---------------------------------------------------------------------
    1 | 0:00.00 | 4:19.01 | 0 | 19425
    2 | 4:19.01 | 3:24.54 | 19426 | 34779
    3 | 7:43.55 | 3:33.24 | 34780 | 50778
    4 | 11:17.04 | 3:38.47 | 50779 | 67175
    5 | 14:55.51 | 7:13.67 | 67176 | 99717
    6 | 22:09.43 | 6:07.01 | 99718 | 127243


    Характеристики диапазона извлечения и сообщения об ошибках

    Выбранный диапазон

    Имя файла C:\My Rips\Audio\Madonna\CD2\Madonna - Rebek Heart (Super Deluxe Japan Edition).wav

    Пиковый уровень 99.9 %
    Скорость извлечения 3.5 X
    Качество диапазона 100.0 %
    CRC теста C0171AE1
    CRC копии C0171AE1
    Копирование... OK

    Ошибок не произошло


    AccurateRip: сводка

    Трек 1 : извлечено точно (доверие 1) [C09E4888] (AR v2)
    Трек 2 : извлечено точно (доверие 1) [C192370D] (AR v2)
    Трек 3 : извлечено точно (доверие 1) [CD5FB70D] (AR v2)
    Трек 4 : извлечено точно (доверие 1) [61763C2C] (AR v2)
    Трек 5 : извлечено точно (доверие 1) [13C97BFD] (AR v2)
    Трек 6 : извлечено точно (доверие 1) [B5436CD7] (AR v2)

    Все треки извлечены точно

    Конец отчёта

    ==== Контрольная сумма отчёта F30BFBD6649C4143ABB27D81C0A5F4FD9DDF7B3AC84BD1F17A 3C79015AD21C59 ====

    ==================================================

    -------------------

    DON'T MODIFY THIS FILE

    -----------------------

    PERFORMER: auCDtect Task Manager, ver. 1.6.0 RC1 build 1.6.0.1
    Copyright (c) 2008-2010 y-soft. All rights reserved
    http://y-soft.org

    ANALYZER: auCDtect: CD records authenticity detector, version 0.8.2
    Copyright (c) 2004 Oleg Berngardt. All rights reserved.
    Copyright (c) 2004 Alexander Djourik. All rights reserved.


    FILE: Madonna - Rebel Heart (Super Deluxe Japan Edition).flac
    Size: 547878640 Hash: 612DF545D331255CBFDB05186C32B973 Accuracy: -m0
    Conclusion: CDDA 100%
    Signature: 0B370D639CEFECCAFCF2F5C821B784439DF79367

    /////////////////////////////////////////////////////////////////////////

    -----------------------

    DON'T MODIFY THIS FILE

    -----------------------

    PERFORMER: auCDtect Task Manager, ver. 1.6.0 RC1 build 1.6.0.1
    Copyright (c) 2008-2010 y-soft. All rights reserved
    http://y-soft.org

    ANALYZER: auCDtect: CD records authenticity detector, version 0.8.2
    Copyright (c) 2004 Oleg Berngardt. All rights reserved.
    Copyright (c) 2004 Alexander Djourik. All rights reserved.


    FILE: Madonna - Rebek Heart (Super Deluxe Japan Edition).flac
    Size: 216321756 Hash: 2AC0DDE871260891A6A6FBC8D6AE4DA0 Accuracy: -m0
    Conclusion: CDDA 100%
    Signature: 0BBC2E831CBF51C47A688B1D7728EA25862D2F49

    ================================================== =

    foobar2000 1.3.7 / Dynamic Range Meter 1.1.1
    log date: 2015-03-24 16:35:32

    --------------------------------------------------------------------------------
    Analyzed: Madonna / Rebel Heart (Super Deluxe Japan Edition)
    --------------------------------------------------------------------------------

    DR Peak RMS Duration Track
    --------------------------------------------------------------------------------
    DR3 -0.01 dB -5.76 dB 3:39 01-Living For Love
    DR5 -0.01 dB -7.70 dB 4:06 02-Devil Pray
    DR5 -0.01 dB -6.81 dB 4:10 03-Ghosttown
    DR3 -0.01 dB -4.99 dB 3:51 04-Unapologetic Bitch
    DR4 -0.01 dB -5.46 dB 3:45 05-Illuminati
    DR3 -0.01 dB -5.27 dB 3:47 06-Bitch I'm Madonna (feat. Nicki Minaj)
    DR5 -0.01 dB -7.25 dB 3:37 07-Hold Tight
    DR7 -0.01 dB -9.89 dB 4:02 08-Joan Of Arc
    DR4 -0.01 dB -6.13 dB 4:33 09-Iconic (feat. Chance The Rapper & Mike Tyson)
    DR6 -0.01 dB -8.93 dB 3:34 10-HeartBreakCity
    DR7 -0.01 dB -9.45 dB 3:39 11-Body Shop
    DR5 -0.01 dB -8.11 dB 4:09 12-Holy Water
    DR6 -0.01 dB -7.87 dB 4:24 13-Inside Out
    DR7 -0.01 dB -10.15 dB 4:01 14-Wash All Over Me
    DR6 -0.01 dB -8.20 dB 3:34 15-Best Night
    DR5 -0.01 dB -7.59 dB 4:40 16-Veni Vidi Vici (feat. Nas)
    DR5 -0.01 dB -6.81 dB 4:11 17-S.E.X.
    DR6 -0.01 dB -8.30 dB 3:22 18-Messiah
    DR5 -0.01 dB -7.02 dB 3:22 19-Rebel Heart
    DR4 0.00 dB -5.52 dB 4:58 20-Living For Love (Dirty Pop Remix)
    --------------------------------------------------------------------------------

    Number of tracks: 20
    Official DR value: DR5

    Samplerate: 44100 Hz
    Channels: 2
    Bits per sample: 16
    Bitrate: 920 kbps
    Codec: FLAC
    ================================================== ==============================

    /////////////////////////////////////////////////////////////////////////////////////////

    foobar2000 1.3.7 / Dynamic Range Meter 1.1.1
    log date: 2015-03-24 16:35:46

    --------------------------------------------------------------------------------
    Analyzed: Madonna / Rebek Heart (Super Deluxe Japan Edition)
    --------------------------------------------------------------------------------

    DR Peak RMS Duration Track
    --------------------------------------------------------------------------------
    DR6 -0.01 dB -8.24 dB 4:19 01-Beautiful Scars
    DR5 -0.31 dB -6.81 dB 3:25 02-Borrowed Time
    DR5 -0.71 dB -8.72 dB 3:33 03-Addicted
    DR6 0.00 dB -8.14 dB 3:39 04-Graffiti Heart
    DR5 -0.61 dB -7.20 dB 7:14 05-Living For Love (PAULO & Jackinsky Full Vocal Mix)
    DR5 -1.15 dB -8.04 dB 6:07 06-Living For Love (Funk Generation & H3dRush Dub)
    --------------------------------------------------------------------------------

    Number of tracks: 6
    Official DR value: DR5

    Samplerate: 44100 Hz
    Channels: 2
    Bits per sample: 16
    Bitrate: 1020 kbps
    Codec: FLAC
    ================================================== ==============================

    [свернуть]

    Rebel Heart (с англ. — «Сердце-бунтарь») — тринадцатый студийный альбом американской певицы и автора песен Мадонны. Анонсирован 20 декабря 2014 года, в тот же день шесть песен нового альбома стали доступны для покупки в ITunes. Полная версия альбома стала доступна для загрузки в марте 2015 года. В стандартную версию альбома вошло 14 треков, в делюкс-версии — 19 треков, в супер-делюкс — 25 треков. В продюсировании альбома приняли участие Дипло, Наталия Киллс, Авичи и Канье Уэст..
    Madonna - Living For Love



    Скрытый текст (вы должны войти под своим логином или зарегистрироваться и иметь 5 сообщение(ий)):
    У вас нет прав чтобы видеть скрытый текст, содержащийся здесь.

  12. 6 пользователя(ей) сказали cпасибо:

    Coroed (17.09.2018), kalach (17.09.2018), Puharik (17.09.2018), Riddler (21.09.2018), Yuraved (17.09.2018), Елизавета (17.09.2018)

  13. #16
    Супер модератор Array Аватар для aheron
    Регистрация
    11.06.2018
    Сообщений
    179
    Сказал(а) спасибо
    1,615
    Поблагодарили 830 раз(а)
    в 133 сообщениях
    Онлайн
    2 Дней 20 ч 42 мин 34 сек
    В среднем
    1 мин 23 сек
    Madonna - The First Album (1983)





    Performer: Madonna
    Album: The First Album
    Label: Sire Records Co./Warner. Made in Germany.
    Catalog #: 7599-23867-2
    Style: Pop, Synth-pop
    Year: 1983
    Format: FLAC (image + .cue)
    Bitrate: lossless
    Covers: in archive
    Amount of tracks: 08
    Size ZIP: ~ 300 mb

    ••• Tracklist •••

    01. Madonna - Lucky Star [5:38]
    02. Madonna - Borderline [5:22]
    03. Madonna - Burning Up [3:46]
    04. Madonna - I Know It [3:47]
    05. Madonna - Holiday [6:11]
    06. Madonna - Think Of Me [4:56]
    07. Madonna - Physical Attraction [6:40]
    08. Madonna - Everybody [4:55]
    --------------------------
    Total time: [41:14]

    Personnel:
    ================
    Madonna – lead vocals, background vocals, cowbell
    Tina B. – background vocals
    Christine Faith – background vocals
    Dean Gant – synthesizer, piano, electric piano
    Gwen Guthrie – background vocals
    Curtis Hudson – guitar
    Raymond Hudson – bass
    Anthony Jackson – electric bass
    Bashiri Johnson – percussion
    Reggie Lucas – guitar
    Bob Malach – tenor saxophone
    Paul Pesco – guitar
    Ira Siegel – guitar
    Ed Walsh – synthesizer
    Brenda White – background vocals
    Norma Jean Wright – background vocals
    Fred Zarr – synthesizer, piano, drums, electric piano, Moog synthesizer, Fender Rhodes, Moog bass

    Notes:
    ====================
    (P) 1982, 1983 Sire Records Co.
    (C) 1983 Sire Records Co.
    Manufactured in Germany Record ServiceGmbH, Alsdorf Press in Allemagne par Record Service GmbH, Alsdorf w A Warner Communications Company
    [свернуть]

    ••• Log EAC + Log auCDtect + Dynamic Range Meter + Spectrum •••

    Exact Audio Copy V0.99 prebeta 5 from 4. May 2009

    Отчёт EAC об извлечении, выполненном 12. апреля 2011, 3:21

    Madonna / The First Album

    Дисковод: Optiarc DVD RW AD-7201A Adapter: 0 ID: 0

    Режим чтения : Достоверность
    Использование точного потока : Да
    Отключение кэша аудио : Да
    Использование указателей C2 : Нет

    Коррекция смещения при чтении : 48
    Способность читать области Lead-in и Lead-out : Нет
    Заполнение пропущенных сэмплов тишиной : Да
    Удаление блоков с тишиной в начале и конце : Нет
    При вычислениях CRC использовались нулевые сэмплы : Да
    Интерфейс : Установленный внешний ASPI-интерфейс

    Выходной формат : Внутренние WAV-операции
    Формат сэмплов : 44.100 Гц; 16 бит; стерео


    TOC извлечённого CD

    Трек | Старт | Длительность | Начальный сектор | Конечный сектор
    ---------------------------------------------------------------------
    1 | 0:00.33 | 5:37.55 | 33 | 25362
    2 | 5:38.13 | 5:21.70 | 25363 | 49507
    3 | 11:00.08 | 3:45.40 | 49508 | 66422
    4 | 14:45.48 | 3:46.67 | 66423 | 83439
    5 | 18:32.40 | 6:10.55 | 83440 | 111244
    6 | 24:43.20 | 4:56.10 | 111245 | 133454
    7 | 29:39.30 | 6:40.00 | 133455 | 163454
    8 | 36:19.30 | 4:55.03 | 163455 | 185582


    Характеристики диапазона извлечения и сообщения об ошибках

    Выбранный диапазон

    Имя файла S:\MUZZIGG\Madonna 1983\Madonna - The First Album.wav

    Пиковый уровень 100.0 %
    Качество диапазона 99.9 %
    CRC теста 4934A602
    CRC копии 4934A602
    Копирование... OK

    Ошибок не произошло


    AccurateRip: сводка

    Трек 1 точное извлечение (доверие 56) [2EB400EF]
    Трек 2 точное извлечение (доверие 59) [D3A13497]
    Трек 3 точное извлечение (доверие 59) [5C4403DF]
    Трек 4 точное извлечение (доверие 57) [49AE3C1B]
    Трек 5 точное извлечение (доверие 60) [BF107714]
    Трек 6 точное извлечение (доверие 56) [E8E46285]
    Трек 7 точное извлечение (доверие 55) [423E07F2]
    Трек 8 точное извлечение (доверие 57) [7576E4C6]

    Все треки извлечены точно

    Конец отчёта

    ////////////////////////////////////////////////////////////////////////////////////

    -----------------------

    DON'T MODIFY THIS FILE

    -----------------------

    PERFORMER: auCDtect Task Manager, ver. 1.6.0 RC1 build 1.6.0.1
    Copyright (c) 2008-2010 y-soft. All rights reserved
    http://y-soft.org

    ANALYZER: auCDtect: CD records authenticity detector, version 0.8.2
    Copyright (c) 2004 Oleg Berngardt. All rights reserved.
    Copyright (c) 2004 Alexander Djourik. All rights reserved.


    FILE: Madonna - The First Album.flac
    Size: 277329746 Hash: CAA99513CD0A19536E21A841ED387A63 Accuracy: -m0
    Conclusion: MPEG 95%
    Signature: AFE9ABA8AF132EFC1AF69D472A65B2ED8F9DF59C

    ////////////////////////////////////////////////////////////////////////////////

    foobar2000 1.3 / Dynamic Range Meter 1.1.1
    log date: 2014-03-20 03:54:11

    --------------------------------------------------------------------------------
    Analyzed: Madonna / The First Album
    --------------------------------------------------------------------------------

    DR Peak RMS Duration Track
    --------------------------------------------------------------------------------
    DR13 0.00 dB -14.91 dB 5:38 01-Lucky Star
    DR13 0.00 dB -15.33 dB 5:22 02-Borderline
    DR14 -0.10 dB -15.67 dB 3:46 03-Burning Up
    DR14 -1.11 dB -16.83 dB 3:47 04-I Know It
    DR14 0.00 dB -15.92 dB 6:11 05-Holiday
    DR16 0.00 dB -17.37 dB 4:56 06-Think Of Me
    DR15 -0.86 dB -17.11 dB 6:40 07-Physical Attraction
    DR17 -0.35 dB -18.89 dB 4:55 08-Everybody
    --------------------------------------------------------------------------------

    Number of tracks: 8
    Official DR value: DR14

    Samplerate: 44100 Hz
    Channels: 2
    Bits per sample: 16
    Bitrate: 896 kbps
    Codec: FLAC
    ================================================== ==============================

    /////////////////////////////////////////////////////////////////////////////

    [свернуть]

    Madonna — дебютный студийный альбом американской поп-певицы Мадонны, выпущенный 27 июля 1983 года студией Sire Records. Альбом был переиздан в 1985 году под названием The First Album для европейского рынка. В 2001 году студия Warner Bros. выпустила дополненную версию альбома с двумя бонус-ремиксами. В 1983 году Мадонна начала записывать свой одноимённый дебютный альбом с продюсером лейбла Warner Bros. Records Регги Лукасом, после того как её первый сингл «Everybody» стал хитом и лейбл Sire Records дал своё согласие на запись. Однако у неё было недостаточно материала для написания полноценного альбома. Лукас внёс в проект две новые песни, а Джон Бенитес[en], диджей в клубе Funhouse Disco, был приглашён, чтобы сделать на них ремиксы. Тем временем, из-за конфликта интересов, соавтор песни «Everybody» Стивен Брей продал композицию «Ain’t No Big Deal» другому лейблу, тем самым сделав её недоступной для проекта Мадонны. Общее звучание Madonna диссонирует в виде приподнятого синтетического диско, используя некоторые новые технологии того времени, как драм-машина Linn, бас Moog и синтезатор Oberheim OB-X. Песни на альбоме Мадонна исполняет в ярком, девичьем вокальном тембре, тексты повествуют о любви и отношениях. Современные критики восхваляют альбом, но Madonna был не очень высоко оценен некоторыми критиками, когда он был выпущен в 1983 году. В 2008 году американский журнал Entertainment Weekly отдал пластинке 5 место в рейтинге «100 лучших альбомов за последние 25 лет»[1]. Альбом был успешным в чартах, достигнув номера восемь в Billboard 200, а также попал в первую десятку хит-парадов в Австралии, Франции, Нидерландах, Новой Зеландии, Швеции и Великобритании. Он был сертифицирован как пятикратно платиновый Ассоциацией звукозаписывающей студии Америки (RIAA), с продажами более пяти миллионов копий на территории Соединенных Штатов. Во всем мире альбом продан в более 10 миллионов копий. Пять синглов было выпущено с альбома, «Holiday» стал первым известным синглом Мадонны, который вошёл в лучшую 20-ку чарта Billboard Hot 100, а также возглавил его, «Lucky Star» стал первым, попавшим в первую пятёрку. Альбом был поддержан шоу-программой The Virgin Tour 1985 года. После выхода альбома, Мадонна отмечала, что хотела укрепить свои позиции в музыкальной индустрии, опираясь на успех первого альбома. Она хотела взять полный самостоятельный контроль над работой, но Warner Bros. не был готов дать ей свободу творчества. Согласно буклету диска Мадонна посвятила дебютный альбом своему отцу, Сильвио Чикконе.
    Madonna - Holiday



    Скрытый текст (вы должны войти под своим логином или зарегистрироваться и иметь 5 сообщение(ий)):
    У вас нет прав чтобы видеть скрытый текст, содержащийся здесь.


  14. 4 пользователя(ей) сказали cпасибо:

    Coroed (21.09.2018), Riddler (21.09.2018), Yuraved (21.09.2018), Елизавета (21.09.2018)

  15. #17
    Супер модератор Array Аватар для aheron
    Регистрация
    11.06.2018
    Сообщений
    179
    Сказал(а) спасибо
    1,615
    Поблагодарили 830 раз(а)
    в 133 сообщениях
    Онлайн
    2 Дней 20 ч 42 мин 34 сек
    В среднем
    1 мин 23 сек
    Madonna - The Immaculate Collection (1990)





    Performer: Madonna
    Album: The Immaculate Collection
    Label: Sire/Warner Bros. Records. Made in Germany.
    Catalog #: 7599-26440-2, 07599-26440-2
    Style: Pop, Synth-pop
    Year: 1990 (Compilation, Reissue)
    Format: FLAC (image + .cue)
    Bitrate: lossless
    Covers: in aechive
    Amount of tracks: 17
    Size ZIP: ~ 611 mb

    ••• Tracklist •••

    01. Madonna - Holiday [4:07]
    02. Madonna - Lucky Star [3:38]
    03. Madonna - Borderline [4:00]
    04. Madonna - Like A Virgin [3:11]
    05. Madonna - Material Girl [3:53]
    06. Madonna - Crazy For You [3:45]
    07. Madonna - Into The Groove [4:10]
    08. Madonna - Live To Tell [5:19]
    09. Madonna - Papa Don't Preach [4:11]
    10. Madonna - Open Your Heart [3:51]
    11. Madonna - La Isla Bonita [3:48]
    12. Madonna - Like A Prayer [5:51]
    13. Madonna - Express Yourself [4:04]
    14. Madonna - Cherish [3:52]
    15. Madonna - Vogue [5:19]
    16. Madonna - Justify My Love [5:01]
    17. Madonna - Rescue Me [5:31]
    --------------------------
    Total time: [01:13:32]

    Notes:
    -----------------------
    Standard jewel case

    Back tray insert:
    © 1990 Sire Records Company for the U.S. and WEA International Inc. for the world outside of the U.S.
    ℗ 1985 Warner Bros. Inc. ℗ 1983, 1984, 1985, 1986, 1989, 1990 Sire Records Company for the U.S. and WEA International Inc. for the world outside of the U.S.
    Made in Germany

    Disc:
    Made in Germany
    © 1990 Sire Records Company for the U.S.
    ℗ 1985 Warner Bros. Inc.
    ℗ 1983, 1984, 1985, 1986, 1989, 1990 Sire Records Company for the U.S.
    [свернуть]

    ••• Log EAC + Log auCDtect + Dynamic Range Meter + Spectrum •••

    Exact Audio Copy V1.0 beta 3 from 29. August 2011

    Отчёт EAC об извлечении, выполненном 27. февраля 2012, 15:31

    Madonna / The Immaculate Collection

    Дисковод: Optiarc DVD RW AD-5280S Adapter: 2 ID: 1

    Режим чтения : Достоверность
    Использование точного потока : Да
    Отключение кэша аудио : Да
    Использование указателей C2 : Нет

    Коррекция смещения при чтении : 48
    Способность читать области Lead-in и Lead-out : Нет
    Заполнение пропущенных сэмплов тишиной : Да
    Удаление блоков с тишиной в начале и конце : Нет
    При вычислениях CRC использовались нулевые сэмплы : Да
    Интерфейс : Установленный внешний ASPI-интерфейс

    Выходной формат : Внутренние WAV-операции
    Формат сэмплов : 44.100 Гц; 16 бит; стерео


    TOC извлечённого CD

    Трек | Старт | Длительность | Начальный сектор | Конечный сектор
    ---------------------------------------------------------------------
    1 | 0:00.00 | 4:06.50 | 0 | 18499
    2 | 4:06.50 | 3:37.40 | 18500 | 34814
    3 | 7:44.15 | 4:00.10 | 34815 | 52824
    4 | 11:44.25 | 3:11.23 | 52825 | 67172
    5 | 14:55.48 | 3:53.25 | 67173 | 84672
    6 | 18:48.73 | 3:45.35 | 84673 | 101582
    7 | 22:34.33 | 4:09.50 | 101583 | 120307
    8 | 26:44.08 | 5:18.67 | 120308 | 144224
    9 | 32:03.00 | 4:11.00 | 144225 | 163049
    10 | 36:14.00 | 3:51.13 | 163050 | 180387
    11 | 40:05.13 | 3:48.12 | 180388 | 197499
    12 | 43:53.25 | 5:51.30 | 197500 | 223854
    13 | 49:44.55 | 4:04.15 | 223855 | 242169
    14 | 53:48.70 | 3:52.35 | 242170 | 259604
    15 | 57:41.30 | 5:19.05 | 259605 | 283534
    16 | 63:00.35 | 5:00.65 | 283535 | 306099
    17 | 68:01.25 | 5:31.35 | 306100 | 330959


    Характеристики диапазона извлечения и сообщения об ошибках

    Выбранный диапазон

    Имя файла C:\rip-flacmusic.ru\Madonna - The Immaculate Collection.wav

    Пиковый уровень 100.0 %
    Скорость извлечения 4.6 X
    Качество диапазона 99.9 %
    CRC теста 8184FEC2
    CRC копии 8184FEC2
    Копирование... OK

    Ошибок не произошло


    AccurateRip: сводка

    Трек 1 : извлечено точно (доверие 36) [6221B0A5] (AR v2)
    Трек 2 : извлечено точно (доверие 37) [A3B6A84E] (AR v2)
    Трек 3 : извлечено точно (доверие 37) [E5A416A0] (AR v2)
    Трек 4 : извлечено точно (доверие 37) [5BBF5525] (AR v2)
    Трек 5 : извлечено точно (доверие 36) [C198C8E1] (AR v2)
    Трек 6 : извлечено точно (доверие 37) [2A22ADA3] (AR v2)
    Трек 7 : извлечено точно (доверие 36) [0E6C9B73] (AR v2)
    Трек 8 : извлечено точно (доверие 38) [8A915668] (AR v2)
    Трек 9 : извлечено точно (доверие 37) [B01AE5FD] (AR v2)
    Трек 10 : извлечено точно (доверие 38) [59C73470] (AR v2)
    Трек 11 : извлечено точно (доверие 38) [02E7C6C6] (AR v2)
    Трек 12 : извлечено точно (доверие 37) [91E94AE4] (AR v2)
    Трек 13 : извлечено точно (доверие 38) [71E8A840] (AR v2)
    Трек 14 : извлечено точно (доверие 37) [57156484] (AR v2)
    Трек 15 : извлечено точно (доверие 36) [E2D0FA3B] (AR v2)
    Трек 16 : извлечено точно (доверие 37) [558671BD] (AR v2)
    Трек 17 : извлечено точно (доверие 35) [92FF9BFD] (AR v2)

    Все треки извлечены точно

    Конец отчёта

    ==== Контрольная сумма отчёта D18ADA8BD3355A651216CE8695F6C18F21C4E41E85C51D1804 23103CC2D8C0A7 ====

    ///////////////////////////////////////////////////////////////////////////////////

    -----------------------

    DON'T MODIFY THIS FILE

    -----------------------

    PERFORMER: auCDtect Task Manager, ver. 1.6.0 RC1 build 1.6.0.1
    Copyright (c) 2008-2010 y-soft. All rights reserved
    http://y-soft.org

    ANALYZER: auCDtect: CD records authenticity detector, version 0.8.2
    Copyright (c) 2004 Oleg Berngardt. All rights reserved.
    Copyright (c) 2004 Alexander Djourik. All rights reserved.


    FILE: Madonna - The Immaculate Collection.flac
    Size: 521451241 Hash: D111B6F2F6E1EB613703897F201FFE8A Accuracy: -m0
    Conclusion: CDDA 100%
    Signature: EFCECCA7F3636ECBA0E731027F33109617234585

    //////////////////////////////////////////////////////////////////////////////

    foobar2000 1.3 / Dynamic Range Meter 1.1.1
    log date: 2014-02-03 20:01:57

    --------------------------------------------------------------------------------
    Analyzed: Madonna / The Immaculate Collection
    --------------------------------------------------------------------------------

    DR Peak RMS Duration Track
    --------------------------------------------------------------------------------
    DR12 -0.06 dB -13.64 dB 4:07 01-Holiday
    DR11 -0.06 dB -12.94 dB 3:38 02-Lucky Star
    DR10 -0.06 dB -12.16 dB 4:00 03-Borderline
    DR11 -0.06 dB -12.86 dB 3:11 04-Like A Virgin
    DR12 -0.06 dB -13.52 dB 3:53 05-Material Girl
    DR12 -0.06 dB -15.08 dB 3:45 06-Crazy For You
    DR12 -0.06 dB -13.53 dB 4:10 07-Into The Groove
    DR11 -0.06 dB -13.74 dB 5:19 08-Live To Tell
    DR13 -0.22 dB -14.78 dB 4:11 09-Papa Don't Preach
    DR12 0.00 dB -13.26 dB 3:51 10-Open Your Heart
    DR12 -0.02 dB -14.21 dB 3:48 11-La Isla Bonita
    DR11 -0.04 dB -13.16 dB 5:51 12-Like A Prayer
    DR12 -0.06 dB -12.73 dB 4:04 13-Express Yourself
    DR12 -0.15 dB -13.37 dB 3:52 14-Cherish
    DR11 -0.06 dB -13.04 dB 5:19 15-Vogue
    DR12 -0.33 dB -13.43 dB 5:01 16-Justify My Love
    DR11 -0.11 dB -13.13 dB 5:31 17-Rescue Me
    --------------------------------------------------------------------------------

    Number of tracks: 17
    Official DR value: DR12

    Samplerate: 44100 Hz
    Channels: 2
    Bits per sample: 16
    Bitrate: 945 kbps
    Codec: FLAC
    ================================================== ==============================

    //////////////////////////////////////////////////////////////////////////////////////////

    [свернуть]

    The Immaculate Collection (с англ. — «Непорочная коллекция») — первый сборник лучших хитов Мадонны, вышедший 9 ноября 1990 года. Считается самым лучшим и коммерчески успешным сборником хитов певицы. Первым синглом была выпущена песня «Justify My Love», который вышел за день до выхода сборника. The Immaculate Collection занял второе место среди альбомов в чартах «Биллборда». В мире было продано больше 30 миллионов экземпляров, в том числе девять миллионов пришлись на США и пять миллионов на Великобританию. Название сборника (рус. Непорочная коллекция) представляет свободную интерпретацию видения Непорочного зачатия, концепцию зачатия Девы Марии без первородного греха. Название характеризует религиозную тематику песен и видео Мадонны, а также второй акт её шоу-программы Blond Ambition World Tour, в котором присутствуют эти мотивы.


    Madonna - La Isla Bonita



    Скрытый текст (вы должны войти под своим логином или зарегистрироваться и иметь 5 сообщение(ий)):
    У вас нет прав чтобы видеть скрытый текст, содержащийся здесь.

  16. 3 пользователя(ей) сказали cпасибо:

    Coroed (Вчера), Riddler (22.09.2018), Елизавета (22.09.2018)

  17. #18
    Супер модератор Array Аватар для aheron
    Регистрация
    11.06.2018
    Сообщений
    179
    Сказал(а) спасибо
    1,615
    Поблагодарили 830 раз(а)
    в 133 сообщениях
    Онлайн
    2 Дней 20 ч 42 мин 34 сек
    В среднем
    1 мин 23 сек
    Madonna - True Blue (1986)





    Performer: Madonna
    Album: True Blue
    Label: Sire Records Co./Warner. Made in Germany.
    Catalog #: 7599-25442-2
    Style: Pop, Synth-pop
    Year: 1986
    Format: FLAC (image + .cue)
    Bitrate: lossless
    Covers: in archive
    Amount of tracks: 9
    Size ZIP: ~ 329 mb

    ••• Tracklist •••

    01. Madonna - Papa Don't Preach [4:29]
    02. Madonna - Open Your Heart [4:13]
    03. Madonna - White Heat [4:40]
    04. Madonna - Live To Tell [5:52]
    05. Madonna - Where's The Party [4:21]
    06. Madonna - True Blue [4:18]
    07. Madonna - La Isla Bonita [4:03]
    08. Madonna - Jimmy Jimmy [3:56]
    09. Madonna - Love Makes The World Go Round [4:32]
    --------------------------
    Total time: [40:24]

    Personnel:
    =====================
    Madonna – producer, lead vocals, background vocals
    Jeffrey Kent Ayeroff – art direction
    Dave Boroff – saxophone
    Stephen Bray – producer, music programming, drums, keyboards, drum programming
    Keithen Carter – background vocals
    Paulinho da Costa – percussion
    Bruce Gaitsch – guitar, electric guitar, rhythm guitar
    Siedah Garrett – background vocals
    Dann Huff – guitar
    Michael Hutchinson – engineering
    Jackie Jackson – background vocals
    Paul Jackson, Jr. – guitar
    Edie Lehmann – background vocals
    Patrick Leonard – producer, drum programming, drums, keyboards, programming
    Jonathan Moffett – background vocals, drums, percussion
    Richard Marx – background vocals
    Jeri McManus – art direction, design
    Billy Meyers – string arrangements
    Dan Nebenzal – mixing, mixing assistant
    John Putnam – guitar, acoustic guitar, electric guitar
    Herb Ritts – photography
    Michael Verdick – engineering, mixing at Channel Recording Studios, Los Angeles, California
    David Williams – background vocals, guitar, rhythm guitar
    Fred Zarr – keyboards
    Ted Jensen – mastering at Sterling Sound, NYC

    Notes:
    ===================
    Another edition of True Blue with different CD label.

    On the back:
    Marketed by WEA International Inc.
    ℗ + © 1986 Sire Records Company for the U.S. and WEA International Inc. for the world outside the U.S.
    Manufactured in Germany by Record Service GmbH, Alsdorf. A Warner Communications Company.

    On CD:
    Manufactured in Germany by Record Service GmbH, Alsdorf
    [свернуть]

    ••• Log EAC + Log auCDtect + Dynamic Range Meter + Spectrum •••

    Exact Audio Copy V0.99 prebeta 5 from 4. May 2009

    Отчёт EAC об извлечении, выполненном 12. апреля 2011, 4:22

    Madonna / True Blue

    Дисковод: Optiarc DVD RW AD-7201A Adapter: 0 ID: 0

    Режим чтения : Достоверность
    Использование точного потока : Да
    Отключение кэша аудио : Да
    Использование указателей C2 : Нет

    Коррекция смещения при чтении : 48
    Способность читать области Lead-in и Lead-out : Нет
    Заполнение пропущенных сэмплов тишиной : Да
    Удаление блоков с тишиной в начале и конце : Нет
    При вычислениях CRC использовались нулевые сэмплы : Да
    Интерфейс : Установленный внешний ASPI-интерфейс

    Выходной формат : Внутренние WAV-операции
    Формат сэмплов : 44.100 Гц; 16 бит; стерео


    TOC извлечённого CD

    Трек | Старт | Длительность | Начальный сектор | Конечный сектор
    ---------------------------------------------------------------------
    1 | 0:00.32 | 4:29.35 | 32 | 20241
    2 | 4:29.67 | 4:13.15 | 20242 | 39231
    3 | 8:43.07 | 4:40.00 | 39232 | 60231
    4 | 13:23.07 | 5:51.38 | 60232 | 86594
    5 | 19:14.45 | 4:21.17 | 86595 | 106186
    6 | 23:35.62 | 4:18.00 | 106187 | 125536
    7 | 27:53.62 | 4:02.43 | 125537 | 143729
    8 | 31:56.30 | 3:55.55 | 143730 | 161409
    9 | 35:52.10 | 4:31.67 | 161410 | 181801


    Характеристики диапазона извлечения и сообщения об ошибках

    Выбранный диапазон

    Имя файла S:\MUZZIGG\Madonna - True Blue\Madonna - True Blue.wav

    Пиковый уровень 100.0 %
    Качество диапазона 99.9 %
    CRC теста 8D96D50F
    CRC копии 8D96D50F
    Копирование... OK

    Ошибок не произошло


    AccurateRip: сводка

    Трек 1 точное извлечение (доверие 176) [02CCCC7A]
    Трек 2 точное извлечение (доверие 175) [EC40E062]
    Трек 3 точное извлечение (доверие 175) [128CEB07]
    Трек 4 точное извлечение (доверие 177) [1F5E6537]
    Трек 5 точное извлечение (доверие 173) [4E898B0D]
    Трек 6 точное извлечение (доверие 177) [4E90C0AF]
    Трек 7 точное извлечение (доверие 180) [D3C16B71]
    Трек 8 точное извлечение (доверие 171) [5685BDEF]
    Трек 9 точное извлечение (доверие 168) [321238E3]

    Все треки извлечены точно

    Конец отчёта

    ///////////////////////////////////////////////////////////////////////////////

    -----------------------

    DON'T MODIFY THIS FILE

    -----------------------

    PERFORMER: auCDtect Task Manager, ver. 1.6.0 RC1 build 1.6.0.1
    Copyright (c) 2008-2010 y-soft. All rights reserved
    http://y-soft.org

    ANALYZER: auCDtect: CD records authenticity detector, version 0.8.2
    Copyright (c) 2004 Oleg Berngardt. All rights reserved.
    Copyright (c) 2004 Alexander Djourik. All rights reserved.


    FILE: Madonna - True Blue.flac
    Size: 283366126 Hash: B29DBCD48718A71613ECB9BFA840EE42 Accuracy: -m0
    Conclusion: CDDA 100%
    Signature: 2C09EBDBC960B9F5FA3C4F17FF0C84A6FC45D36B

    //////////////////////////////////////////////////////////////////////////////

    foobar2000 1.3 / Dynamic Range Meter 1.1.1
    log date: 2014-03-20 04:05:10

    --------------------------------------------------------------------------------
    Analyzed: Madonna / True Blue
    --------------------------------------------------------------------------------

    DR Peak RMS Duration Track
    --------------------------------------------------------------------------------
    DR12 0.00 dB -13.77 dB 4:29 01-Papa Don't Preach
    DR12 0.00 dB -13.71 dB 4:13 02-Open Your Heart
    DR12 0.00 dB -13.43 dB 4:40 03-White Heat
    DR12 0.00 dB -14.61 dB 5:52 04-Live To Tell
    DR12 0.00 dB -12.90 dB 4:21 05-Where's The Party
    DR13 0.00 dB -13.99 dB 4:18 06-True Blue
    DR13 0.00 dB -15.19 dB 4:03 07-La Isla Bonita
    DR13 0.00 dB -14.28 dB 3:56 08-Jimmy Jimmy
    DR13 0.00 dB -14.26 dB 4:32 09-Love Makes The World Go Round
    --------------------------------------------------------------------------------

    Number of tracks: 9
    Official DR value: DR12

    Samplerate: 44100 Hz
    Channels: 2
    Bits per sample: 16
    Bitrate: 935 kbps
    Codec: FLAC
    ================================================== ==============================

    /////////////////////////////////////////////////////////////////////////////////

    [свернуть]



    True Blue — третий студийный альбом американской певицы Мадонны, выпущенный 30 июня 1986 года. Мадонна работала со Стивеном Брайем и Патриком Леонардом, став соавтором и сопродюсером всех песен на альбоме. Как наиболее «девичий» альбом Мадонны, True Blue представляет квинтэссенцию тем о любви, работе, мечтах, а также разочаровании, и был вдохновлен её отношениями с мужем Шоном Пенном, которому Мадонна посвятила альбом. На обложке пластинки написано: «Посвящается моему мужу, самому клёвому парню во Вселенной».[1] В музыкальном плане песни на альбоме приняли другое направление от её предыдущих работ, включив классическую музыку для того, чтобы завоевать более старшую аудиторию, которая скептически относилась к её музыке. В записи альбома использовали различные инструменты, в том числе акустические гитары, барабаны, синтезаторы и кубинские музыкальные инструменты. Темы для песен варьируется от любви, свободы, а в песне «Papa Don’t Preach» поднимаются такие социальные проблемы, как подростковая беременность. После его выхода, True Blue получил множество положительных отзывов от критиков. Они похвалили альбом, описав его как архетип поп-альбомов конца 80-х и начала 90-х. Они также высоко оценили тот факт, что голос Мадонны звучал сильнее, чем это было на её предыдущих релизах, высоко оценив навыки Мадонны как певицы, композитора и артиста.
    Madonna - Papa Don't Preach



    Скрытый текст (вы должны войти под своим логином или зарегистрироваться и иметь 5 сообщение(ий)):
    У вас нет прав чтобы видеть скрытый текст, содержащийся здесь.


  18. 4 пользователя(ей) сказали cпасибо:

    Coroed (Вчера), Riddler (Вчера), Yuraved (Вчера), Елизавета (Вчера)

Страница 2 из 2 ПерваяПервая 12

Информация о теме

Пользователи, просматривающие эту тему

Эту тему просматривают: 1 (пользователей: 0 , гостей: 1)

Похожие темы

  1. Madonna - 4 Minutes (Promo CDS) 2008
    от reflexmusic в разделе Популярная музыка
    Ответов: 0
    Последнее сообщение: 26.03.2008, 13:10

Социальные закладки

Социальные закладки

Ваши права

  • Вы не можете создавать новые темы
  • Вы не можете отвечать в темах
  • Вы не можете прикреплять вложения
  • Вы не можете редактировать свои сообщения
  •