Страница 2 из 2 ПерваяПервая 12
Показано с 11 по 17 из 17

Тема: Magnum

  1. #1
    Супер модератор Array Аватар для aheron
    Регистрация
    11.06.2018
    Сообщений
    218
    Сказал(а) спасибо
    2,235
    Поблагодарили 1,126 раз(а)
    в 172 сообщениях
    Онлайн
    3 Дней 19 ч 9 мин 26 сек
    В среднем
    1 мин 49 сек

    Magnum






    Magnum - британская рок-группа, основанная в 1972 году. Наибольшего успеха добалась в 80-х годах, 20-го столетия. В стилистическом плане группа исполняет мелодичный хард-рок с примесью прогрессива, присутствует значительная доля баллад. Претерпев ряд изменений, группа остаётся популярной и до сих пор. В августе 1978 года был издан дебютный полноформатный студийный альбом коллектива под названием Kingdom of Madness, весь материал которого был написан гитаристом Тони Кларкином. Первый настоящий успех приходит к группе после выпуска 5-го по счёту студийного альбома On a Storyteller's Night в 1985 году: пластинка получает золотой статус у себя на родине, а также становится первой работой группы, попавшей в чарты Швеции, заняв в них 44-е место и продержавшись 2 недели. Похвально отозвался об данном альбоме и известный немецкий журнал Rock Hard, назвав звучание «атмосферным и драматичным», отметив такие композиции как How Far Jerusalem, All England’s Eyes и On a Storyteller’s Night, выставив пластинке 9 баллов из 10. Обозреватель из Allmusic оказался более сдержанным, оценив работу в 3,5 балла из 5. Практически таким же успешным оказался седьмой альбом группы Wings of Heaven, изданный в июле 1988 года, который получил серебряную сертификацию в Великобритании и попал в топ-5 шведских чартов, заняв там 2-е место, продержавшись в чартах 6 недель. Признание было и в других странах — 7-е место в чартах Норвегии и 8-е в Швейцарии. В Германии диск занял 19-е место.
    Текущий состав: Боб Кэтли — вокал (1972—1995, 2001—наши дни); Тони Кларкин — гитара, вокал (1972—1995, 2001—наши дни); Эл Берроу — бас-гитара (2001—наши дни); Герри Джеймс — ударные, перкуссия (2002—2005, 2007—наши дни); Марк Стенвей — клавишные (1980—1984, 1985—1995, 2001—наши дни).
    Бывшие участники: Дэвид Морган — бас-гитара, вокал (1972—1975); Ричард Бэйли — клавишные, флейта, вокал (1976—1980); Джим Симпсон — ударные, перкуссия Микки Баркер — ударные, перкуссия (1985—1995);

  2. 5 пользователя(ей) сказали cпасибо:

    Coroed (30.09.2018), kalach (01.10.2018), Puharik (01.10.2018), Riddler (30.09.2018), Елизавета (01.10.2018)

  3. #11
    Супер модератор Array Аватар для aheron
    Регистрация
    11.06.2018
    Сообщений
    218
    Сказал(а) спасибо
    2,235
    Поблагодарили 1,126 раз(а)
    в 172 сообщениях
    Онлайн
    3 Дней 19 ч 9 мин 26 сек
    В среднем
    1 мин 49 сек
    Magnum - Princess Alice And The Broken Arrow (2007) [Japan]





    Performer: Magnum
    Album: Princess Alice And The Broken Arrow
    Label: Nexus/King Records. Made in Japan.
    Catalog #: KICP 1247
    Style: Hard Rock, Prog Rock, Symphonic Rock
    Year: 2007
    Format: FLAC (image + .cue)
    Bitrate: lossless
    Covers: in archive
    Amount of tracks: 12
    Size ZIP: ~ 530 mb

    ••• Tracklist •••

    01. Magnum - When We Were Younger [7:00]
    02. Magnum - Eyes Wide Open [5:54]
    03. Magnum - Like Brothers We Stand [5:35]
    04. Magnum - Out Of The Shadows [6:59]
    05. Magnum - Dragons Are Real [5:21]
    06. Magnum - Inside Your Head [6:01]
    07. Magnum - Be Strong [5:40]
    08. Magnum - Thank You For The Day [5:11]
    09. Magnum - Your Lies [4:35]
    10. Magnum - Desperate Times [5:23]
    11. Magnum - You'll Never Sleep [5:00]
    -=Bonus Track For Japan=-
    12. Magnum - Like Brothers We Stand (Radio Edit) [3:33]
    --------------------------
    Total time: [1:06:11]

    Personnel:
    =====================
    Tony Clarkin – guitar
    Bob Catley – vocals
    Al Barrow – bass guitar
    Mark Stanway – keyboards
    Jimmy Copley – drums

    Additional musicians
    ---------------------
    Jim Lea — violin (on "You'll Never Sleep")

    Notes:
    =====================
    Ⓟ 2007 Steamhammer, a division of SPV GmbH
    Ⓒ 2007 Steamhammer, a division of SPV GmbH
    Record Company – King Record Co. Ltd
    Record Company – SPV GmbH
    Licensed From – SPV GmbH
    All tracks written by Tony Clarkin.

    Released - 26 March 2007
    Recorded - Mad Hat Studios, Wolverhampton United Kingdom 2005 – 2006
    Producer - Tony Clarkin
    [свернуть]

    ••• Log EAC + Log auCDtect + Dynamic Range Meter + Spectrum •••

    Exact Audio Copy V1.1 from 23. June 2015

    Отчёт EAC об извлечении, выполненном 1. февраля 2017, 19:32

    Magnum / Princess Alice And The Broken Arrow (KICP-1247)

    Дисковод: PLEXTOR BD-R PX-B950SA Adapter: 1 ID: 0

    Режим чтения : Достоверность
    Использование точного потока : Да
    Отключение кэша аудио : Да
    Использование указателей C2 : Нет

    Коррекция смещения при чтении : 6
    Способность читать области Lead-in и Lead-out : Нет
    Заполнение пропущенных сэмплов тишиной : Да
    Удаление блоков с тишиной в начале и конце : Нет
    При вычислениях CRC использовались нулевые сэмплы : Да
    Интерфейс : Встроенный Win32-интерфейс для Win NT/2000

    Выходной формат : Пользовательский кодировщик
    Выбранный битрейт : 1024 kBit/s
    Качество : Высокий
    Добавление ID3-тега : Нет
    Утилита сжатия : C:\Program Files (x86)\Exact Audio Copy\FLAC\FLAC.EXE
    Дополнительные параметры : -6 -V -T "ARTIST=%artist%" -T "TITLE=%title%" -T "ALBUM=%albumtitle%" -T "DATE=%year%" -T "TRACKNUMBER=%tracknr%" -T "GENRE=%genre%" -T "COMMENT=%comment%" -T "BAND=%albuminterpret%" -T "ALBUMARTIST=%albuminterpret%" -T "COMPOSER=%composer%" %haslyrics%--tag-from-file=LYRICS="%lyricsfile%"%haslyrics% -T "DISCNUMBER=%cdnumber%" -T "TOTALDISCS=%totalcds%" -T "TOTALTRACKS=%numtracks%" %hascover%--picture="%coverfile%"%hascover% %source% -o %dest%


    TOC извлечённого CD

    Трек | Старт | Длительность | Начальный сектор | Конечный сектор
    ---------------------------------------------------------------------
    1 | 0:00.00 | 7:00.09 | 0 | 31508
    2 | 7:00.09 | 5:54.35 | 31509 | 58093
    3 | 12:54.44 | 5:35.08 | 58094 | 83226
    4 | 18:29.52 | 6:58.48 | 83227 | 114624
    5 | 25:28.25 | 5:21.11 | 114625 | 138710
    6 | 30:49.36 | 6:01.12 | 138711 | 165797
    7 | 36:50.48 | 5:40.25 | 165798 | 191322
    8 | 42:30.73 | 5:10.42 | 191323 | 214614
    9 | 47:41.40 | 4:34.61 | 214615 | 235225
    10 | 52:16.26 | 5:22.41 | 235226 | 259416
    11 | 57:38.67 | 4:59.44 | 259417 | 281885
    12 | 62:38.36 | 3:33.22 | 281886 | 297882


    Характеристики диапазона извлечения и сообщения об ошибках

    Выбранный диапазон

    Имя файла G:\RIP\Magnum 2007 Japanese Pressing FLAC by alzal\Magnum - Princess Alice And The Broken Arrow (KICP-1247).wav

    Пиковый уровень 100.0 %
    Скорость извлечения 9.9 X
    Качество диапазона 100.0 %
    CRC теста 2548C1C2
    CRC копии 2548C1C2
    Копирование... OK

    Ошибок не произошло


    AccurateRip: сводка

    Трек 1 отсутствует в базе данных
    Трек 2 отсутствует в базе данных
    Трек 3 отсутствует в базе данных
    Трек 4 отсутствует в базе данных
    Трек 5 отсутствует в базе данных
    Трек 6 отсутствует в базе данных
    Трек 7 отсутствует в базе данных
    Трек 8 отсутствует в базе данных
    Трек 9 отсутствует в базе данных
    Трек 10 отсутствует в базе данных
    Трек 11 отсутствует в базе данных
    Трек 12 отсутствует в базе данных

    Ни одного трека нет в базе AccurateRip

    Конец отчёта

    ---- CUETools DB Plugin V2.1.6

    [CTDB TOCID: YiQSKxSnugVe0AuAF.F.9C9vXf0-] disk not present in database
    Submit result: YiQSKxSnugVe0AuAF.F.9C9vXf0- has been uploaded


    ==== Контрольная сумма отчёта 631DDB74D01C66B7ED3214BA164054FF8203458536298D4EC2 580F64A558DCCD ====

    //////////////////////////////////////////////////////////////////////////////////

    -----------------------

    DON'T MODIFY THIS FILE

    -----------------------

    PERFORMER: auCDtect Task Manager, ver. 1.6.0 RC1 build 1.6.0.1
    Copyright (c) 2008-2010 y-soft. All rights reserved
    http://y-soft.org

    ANALYZER: auCDtect: CD records authenticity detector, version 0.8.2
    Copyright (c) 2004 Oleg Berngardt. All rights reserved.
    Copyright (c) 2004 Alexander Djourik. All rights reserved.


    FILE: Magnum - Princess Alice And The Broken Arrow (KICP-1247).flac
    Size: 504530921 Hash: 3AEE5631606AEE6791699ED7562EF7EC Accuracy: -m0
    Conclusion: CDDA 100%
    Signature: 301B5B4031CCD0340670D27808AAE0867B965235

    ///////////////////////////////////////////////////////////////////////////////

    foobar2000 1.3.14 / Dynamic Range Meter 1.1.1
    log date: 2017-02-13 20:54:09

    --------------------------------------------------------------------------------
    Analyzed: Magnum / Princess Alice And The Broken Arrow (KICP-1247)
    --------------------------------------------------------------------------------

    DR Peak RMS Duration Track
    --------------------------------------------------------------------------------
    DR5 -0.09 dB -7.74 dB 7:00 01-When We Were Younger
    DR6 -0.09 dB -7.49 dB 5:54 02-Eyes Wide Open
    DR7 -0.09 dB -8.77 dB 5:35 03-Like Brothers We Stand
    DR7 -0.09 dB -7.81 dB 6:59 04-Out Of The Shadows
    DR6 -0.09 dB -7.51 dB 5:21 05-Dragons Are Real
    DR6 -0.09 dB -8.03 dB 6:01 06-Inside Your Head
    DR6 -0.09 dB -6.74 dB 5:40 07-Be Strong
    DR6 -0.09 dB -7.00 dB 5:11 08-Thank You For The Day
    DR6 -0.09 dB -7.03 dB 4:35 09-Your Lies
    DR5 -0.09 dB -7.09 dB 5:23 10-Desperate Times
    DR6 0.00 dB -7.56 dB 5:00 11-You'll Never Sleep
    DR7 0.00 dB -7.83 dB 3:33 12-Like Brothers We Stand (Radio Edit)
    --------------------------------------------------------------------------------

    Number of tracks: 12
    Official DR value: DR6

    Samplerate: 44100 Hz
    Channels: 2
    Bits per sample: 16
    Bitrate: 1016 kbps
    Codec: FLAC
    ================================================== ==============================

    ///////////////////////////////////////////////////////////////////////////////////

    [свернуть]

    «Princess Alice and the Broken Arrow» - это один из самых лучших альбомов в стиле мелодик-хард. Это музыка самой высокой пробы – с какой стороны не посмотри, везде альбом хорош. Музыка просто отличная: каждый инструмент на своем месте – яркие гитары, торжественные клавиши, филигранные ударные – все это создает неповторимое музыкальное полотно, которое можно слушать хоть весь день – не надоест. Песни все красивые, возвышенные, с легкой ноткой волшебства, которое кроется в мельчайших деталях – тут прозвучит таинственный хор, тут переборы испанской гитары – а все вместе просто сказка. Вокал выше всяких похвал – группа-то не самая молодая, а голос вокалиста чистый и мягкий – никаких хрипов и визгов. Качество записи отменное – придраться не к чему. Конечно, кому-то может не понравиться излишняя мягкость и гладкость альбома – здесь нет агрессии и злобы, которую можно найти во многих образцах хард-рока. Но, поверьте, этому диску она не требуется. Это музыка мечты и волшебства. Подводя итог, повторюсь – этот альбом (как и его брат-близнец «Into the Valley of the Moon King» 2009-го года) – лучшее, что было сделано в жанре мелодик-харда за последнее время. Слушать обязательно.


    Magnum - Dragons Are Real



    Скрытый текст (вы должны войти под своим логином или зарегистрироваться и иметь 5 сообщение(ий)):
    У вас нет прав чтобы видеть скрытый текст, содержащийся здесь.

  4. 5 пользователя(ей) сказали cпасибо:

    Coroed (08.10.2018), kalach (09.10.2018), Puharik (08.10.2018), Riddler (08.10.2018), Елизавета (10.10.2018)

  5. #12
    Супер модератор Array Аватар для aheron
    Регистрация
    11.06.2018
    Сообщений
    218
    Сказал(а) спасибо
    2,235
    Поблагодарили 1,126 раз(а)
    в 172 сообщениях
    Онлайн
    3 Дней 19 ч 9 мин 26 сек
    В среднем
    1 мин 49 сек
    Magnum - Rock Art (1994)





    Performer: Magnum
    Album: Rock Art
    Label: EMI Germany. Made in Holland.
    Catalog #: 7243 8 29365 2 7
    Style: Hardrock, Prog Rock, Arena Rock
    Year: 1994
    Format: FLAC (image + .cue)
    Bitrate: lossless
    Covers: in archive
    Amount of tracks: 11
    Size ZIP: ~ 508 mb

    ••• Tracklist •••

    01. Magnum - We All Need To Be Loved [4:59]
    02. Magnum - Hard Hearted Woman [3:50]
    03. Magnum - Back In Your Arms Again [5:59]
    04. Magnum - Rock Heavy [4:01]
    05. Magnum - The Tall Ships [5:13]
    06. Magnum - Tell Tale Eyes [4:54]
    07. Magnum - Love's A Stranger [5:16]
    08. Magnum - Hush-A-Bye Baby [4:52]
    09. Magnum - Just This Side Of Heaven [4:25]
    10. Magnum - I Will Decide Myself [4:19]
    11. Magnum - On Christmas Day [7:10]
    --------------------------
    Total time: [54:58]

    Personnel:
    ==============
    Tony Clarkin - guitar
    Bob Catley - vocals
    Wally Lowe - bass guitar
    Mark Stanway - keyboards
    Mickey Barker - drums

    Additional musicians
    ---------------------
    Jacki Graham - backing vocals
    Mo Birch - backing vocals
    P.J. Wright - pedal steel guitars

    Notes:
    =====================
    Ⓟ 1994 Magnum Under Exlusive
    Licence To EMI Elektrola Gmbh

    All songs written & produced by Tony Clarkin, recorded @ The Magnum Studios, Birmingham
    [свернуть]

    ••• Log EAC + Log auCDtect + Dynamic Range Meter + Spectrum •••

    Exact Audio Copy V1.0 beta 6 from 9. April 2015

    EAC extraction logfile from 27. April 2015, 19:11

    Magnum / Rock Art

    Used drive : HL-DT-STDVDRAM GH22NS40 Adapter: 1 ID: 0

    Read mode : Secure
    Utilize accurate stream : Yes
    Defeat audio cache : Yes
    Make use of C2 pointers : No

    Read offset correction : 667
    Overread into Lead-In and Lead-Out : No
    Fill up missing offset samples with silence : Yes
    Delete leading and trailing silent blocks : No
    Null samples used in CRC calculations : Yes
    Used interface : Native Win32 interface for Win NT & 2000

    Used output format : User Defined Encoder
    Selected bitrate : 1024 kBit/s
    Quality : High
    Add ID3 tag : Yes
    Command line compressor : C:\Program Files\Exact Audio Copy\Flac\flac.exe
    Additional command line options : -V -8 -T "Date=%year%" -T "Genre=%genre%" %source%


    TOC of the extracted CD

    Track | Start | Length | Start sector | End sector
    ---------------------------------------------------------
    1 | 0:00.00 | 4:59.15 | 0 | 22439
    2 | 4:59.15 | 3:50.25 | 22440 | 39714
    3 | 8:49.40 | 5:59.27 | 39715 | 66666
    4 | 14:48.67 | 4:00.40 | 66667 | 84706
    5 | 18:49.32 | 5:13.25 | 84707 | 108206
    6 | 24:02.57 | 4:54.25 | 108207 | 130281
    7 | 28:57.07 | 5:15.55 | 130282 | 153961
    8 | 34:12.62 | 4:52.15 | 153962 | 175876
    9 | 39:05.02 | 4:25.03 | 175877 | 195754
    10 | 43:30.05 | 4:18.50 | 195755 | 215154
    11 | 47:48.55 | 7:09.40 | 215155 | 247369


    Range status and errors

    Selected range

    Filename I:\Rips\Magnum - Rock Art.wav

    Peak level 99.4 %
    Extraction speed 1.8 X
    Range quality 100.0 %
    Test CRC CC60837B
    Copy CRC CC60837B
    Copy OK

    No errors occurred


    AccurateRip summary

    Track 1 accurately ripped (confidence 26) [D3CA4EEA] (AR v2)
    Track 2 accurately ripped (confidence 26) [5D06D35C] (AR v2)
    Track 3 accurately ripped (confidence 26) [8D1457BA] (AR v2)
    Track 4 accurately ripped (confidence 26) [0E41777B] (AR v2)
    Track 5 accurately ripped (confidence 26) [8802D146] (AR v2)
    Track 6 accurately ripped (confidence 26) [C4A809AD] (AR v2)
    Track 7 accurately ripped (confidence 26) [1735D5DC] (AR v2)
    Track 8 accurately ripped (confidence 26) [2F0B561A] (AR v2)
    Track 9 accurately ripped (confidence 26) [A76704BA] (AR v2)
    Track 10 accurately ripped (confidence 26) [28F95014] (AR v2)
    Track 11 accurately ripped (confidence 26) [94EBDECF] (AR v2)

    All tracks accurately ripped

    End of status report

    ---- CUETools DB Plugin V2.1.6

    [CTDB TOCID: Pn0SCamFNwRtBkZbNDZ1l97I_tc-] found
    Submit result:
    Track | CTDB Status
    1 | (24/24) Accurately ripped
    2 | (24/24) Accurately ripped
    3 | (24/24) Accurately ripped
    4 | (24/24) Accurately ripped
    5 | (24/24) Accurately ripped
    6 | (24/24) Accurately ripped
    7 | (23/24) Accurately ripped
    8 | (23/24) Accurately ripped
    9 | (24/24) Accurately ripped
    10 | (24/24) Accurately ripped
    11 | (24/24) Accurately ripped


    ==== Log checksum C80BBB0B20447A0A19F5DCB88462316E5771D9FA62A40D4B1CE3C9029E9B2CA6 ====

    /////////////////////////////////////////////////////////////////////////////

    -----------------------

    DON'T MODIFY THIS FILE

    -----------------------

    PERFORMER: auCDtect Task Manager, ver. 1.6.0 RC1 build 1.6.0.1
    Copyright (c) 2008-2010 y-soft. All rights reserved
    http://y-soft.org

    ANALYZER: auCDtect: CD records authenticity detector, version 0.8.2
    Copyright (c) 2004 Oleg Berngardt. All rights reserved.
    Copyright (c) 2004 Alexander Djourik. All rights reserved.


    FILE: Magnum - Rock Art.flac
    Size: 389397684 Hash: 23BB4826DA03FBBD9F51894538162BE5 Accuracy: -m0
    Conclusion: CDDA 100%
    Signature: E33660DAF2A6B9B6134A21E4533AA520271B0539

    ////////////////////////////////////////////////////////////////////////////////

    foobar2000 1.3.8 / Dynamic Range Meter 1.1.1
    log date: 2015-06-23 10:56:40

    --------------------------------------------------------------------------------
    Analyzed: Magnum / Rock Art
    --------------------------------------------------------------------------------

    DR Peak RMS Duration Track
    --------------------------------------------------------------------------------
    DR12 -0.05 dB -13.66 dB 4:59 01-We All Need To Be Loved
    DR10 -0.05 dB -11.31 dB 3:50 02-Hard Hearted Woman
    DR11 -0.05 dB -13.12 dB 5:59 03-Back In Your Arms Again
    DR12 -0.05 dB -13.09 dB 4:01 04-Rock Heavy
    DR11 -0.05 dB -13.08 dB 5:13 05-The Tall Ships
    DR10 -0.05 dB -11.43 dB 4:54 06-Tell Tale Eyes
    DR12 -0.05 dB -13.64 dB 5:16 07-Love's A Stranger
    DR9 -0.05 dB -11.15 dB 4:52 08-Hush-A-Bye Baby
    DR11 -0.05 dB -12.41 dB 4:25 09-Just This Side Of Heaven
    DR13 -0.05 dB -15.66 dB 4:19 10-I Will Decide Myself
    DR11 -0.05 dB -12.24 dB 7:10 11-On Christmas Day
    --------------------------------------------------------------------------------

    Number of tracks: 11
    Official DR value: DR11

    Samplerate: 44100 Hz
    Channels: 2
    Bits per sample: 16
    Bitrate: 944 kbps
    Codec: FLAC
    ================================================================================

    ///////////////////////////////////////////////////////////////////////////////

    [свернуть]

    Rock Art - 11-й студийный альбом английской рок-группы Magnum и был выпущен в 1994 году EMI. Это был последний альбом, выпущенный первой инкарнацией группы. Альбом получил свое название, потому что Тони Кларккин смотрел документальный фильм о пещерных картинах с каменного века.


    Скрытый текст (вы должны войти под своим логином или зарегистрироваться и иметь 5 сообщение(ий)):
    У вас нет прав чтобы видеть скрытый текст, содержащийся здесь.

  6. 5 пользователя(ей) сказали cпасибо:

    Coroed (09.10.2018), kalach (09.10.2018), Puharik (09.10.2018), Riddler (09.10.2018), Елизавета (10.10.2018)

  7. #13
    Супер модератор Array Аватар для aheron
    Регистрация
    11.06.2018
    Сообщений
    218
    Сказал(а) спасибо
    2,235
    Поблагодарили 1,126 раз(а)
    в 172 сообщениях
    Онлайн
    3 Дней 19 ч 9 мин 26 сек
    В среднем
    1 мин 49 сек
    Magnum - Sacred Blood "Divine" Lies (2016) [Japan]





    Performer: Magnum
    Album: Sacred Blood "Divine" Lies
    Label: Rubicon Music. Made in Japan.
    Catalog #: RBNCD-1206
    Style: AOR, Hard Rock, Prog Rock
    Year: 2016
    Format: FLAC (image + .cue)
    Bitrate: lossless
    Covers: in archive
    Amount of tracks: 13
    Size ZIP: ~ 568 mb

    ••• Tracklist •••

    01. Magnum - Sacred Blood 'Divine' Lies [6:43]
    02. Magnum - Crazy Old Mothers [5:48]
    03. Magnum - Gypsy Queen [4:31]
    04. Magnum - Princess In Rags (The Cult) [5:28]
    05. Magnum - Your Dreams Won't Die [5:27]
    06. Magnum - Afraid Of The Night [4:33]
    07. Magnum - A Forgotten Conversation [4:57]
    08. Magnum - Quiet Rhapsody [5:41]
    09. Magnum - Twelve Men Wise And Just [6:19]
    10. Magnum - Don't Cry Baby [5:07]
    -=Bonus Track For Japan=-
    11. Magnum - The Phantom Of Paradise Circus [5:57]
    12. Magnum - Don't Grow Up [4:50]
    13. Magnum - No God Or Saviour [5:38]
    --------------------------
    Total time: [1:10:59]

    Personnel:
    =================
    Tony Clarkin – guitar
    Bob Catley – vocals
    Al Barrow – bass guitar
    Mark Stanway – keyboards
    Harry James – drums

    Notes:
    =====================
    Ⓟ&Ⓒ 2016 Under Exclusive License From Steamhammer To Rubicon Music.
    Produced by Tony Clarkin
    [свернуть]

    ••• Log EAC + Log auCDtect + Dynamic Range Meter + Spectrum •••

    Exact Audio Copy V1.1 from 23. June 2015

    Отчёт EAC об извлечении, выполненном 3. января 2017, 15:35

    Magnum / Sacred Blood "Divine" Lies (RBNCD-1206)

    Дисковод: PLEXTOR BD-R PX-B950SA Adapter: 1 ID: 0

    Режим чтения : Достоверность
    Использование точного потока : Да
    Отключение кэша аудио : Да
    Использование указателей C2 : Нет

    Коррекция смещения при чтении : 6
    Способность читать области Lead-in и Lead-out : Нет
    Заполнение пропущенных сэмплов тишиной : Да
    Удаление блоков с тишиной в начале и конце : Нет
    При вычислениях CRC использовались нулевые сэмплы : Да
    Интерфейс : Встроенный Win32-интерфейс для Win NT/2000

    Выходной формат : Пользовательский кодировщик
    Выбранный битрейт : 1024 kBit/s
    Качество : Высокий
    Добавление ID3-тега : Нет
    Утилита сжатия : C:\Program Files (x86)\Exact Audio Copy\FLAC\FLAC.EXE
    Дополнительные параметры : -6 -V -T "ARTIST=%artist%" -T "TITLE=%title%" -T "ALBUM=%albumtitle%" -T "DATE=%year%" -T "TRACKNUMBER=%tracknr%" -T "GENRE=%genre%" -T "COMMENT=%comment%" -T "BAND=%albuminterpret%" -T "ALBUMARTIST=%albuminterpret%" -T "COMPOSER=%composer%" %haslyrics%--tag-from-file=LYRICS="%lyricsfile%"%haslyrics% -T "DISCNUMBER=%cdnumber%" -T "TOTALDISCS=%totalcds%" -T "TOTALTRACKS=%numtracks%" %hascover%--picture="%coverfile%"%hascover% %source% -o %dest%


    TOC извлечённого CD

    Трек | Старт | Длительность | Начальный сектор | Конечный сектор
    ---------------------------------------------------------------------
    1 | 0:00.00 | 6:42.53 | 0 | 30202
    2 | 6:42.53 | 5:48.27 | 30203 | 56329
    3 | 12:31.05 | 4:30.44 | 56330 | 76623
    4 | 17:01.49 | 5:28.19 | 76624 | 101242
    5 | 22:29.68 | 5:26.65 | 101243 | 125757
    6 | 27:56.58 | 4:33.14 | 125758 | 146246
    7 | 32:29.72 | 4:57.28 | 146247 | 168549
    8 | 37:27.25 | 5:41.03 | 168550 | 194127
    9 | 43:08.28 | 6:18.72 | 194128 | 222549
    10 | 49:27.25 | 5:06.51 | 222550 | 245550
    11 | 54:34.01 | 5:57.24 | 245551 | 272349
    12 | 60:31.25 | 4:49.63 | 272350 | 294087
    13 | 65:21.13 | 5:38.00 | 294088 | 319437


    Характеристики диапазона извлечения и сообщения об ошибках

    Выбранный диапазон

    Имя файла G:\RIP\Magnum 2016 Japanese Pressing FLAC by alzal\Magnum - Sacred Blood ''Divine'' Lies (RBNCD-1206).wav

    Пиковый уровень 99.6 %
    Скорость извлечения 3.7 X
    Качество диапазона 100.0 %
    CRC теста 9CB0A72B
    CRC копии 9CB0A72B
    Копирование... OK

    Ошибок не произошло


    AccurateRip: сводка

    Трек 1 отсутствует в базе данных
    Трек 2 отсутствует в базе данных
    Трек 3 отсутствует в базе данных
    Трек 4 отсутствует в базе данных
    Трек 5 отсутствует в базе данных
    Трек 6 отсутствует в базе данных
    Трек 7 отсутствует в базе данных
    Трек 8 отсутствует в базе данных
    Трек 9 отсутствует в базе данных
    Трек 10 отсутствует в базе данных
    Трек 11 отсутствует в базе данных
    Трек 12 отсутствует в базе данных
    Трек 13 отсутствует в базе данных

    Ни одного трека нет в базе AccurateRip

    Конец отчёта

    ---- CUETools DB Plugin V2.1.6

    [CTDB TOCID: on34RnMMuAPpXiFh7Vy8Pq7RGuM-] found
    Submit result: on34RnMMuAPpXiFh7Vy8Pq7RGuM- has been confirmed
    Track | CTDB Status
    1 | (4/4) Accurately ripped
    2 | (4/4) Accurately ripped
    3 | (4/4) Accurately ripped
    4 | (4/4) Accurately ripped
    5 | (4/4) Accurately ripped
    6 | (4/4) Accurately ripped
    7 | (4/4) Accurately ripped
    8 | (4/4) Accurately ripped
    9 | (4/4) Accurately ripped
    10 | (4/4) Accurately ripped
    11 | (4/4) Accurately ripped
    12 | (4/4) Accurately ripped
    13 | (4/4) Accurately ripped


    ==== Контрольная сумма отчёта F186DDCB4FB4411D9014B8E87591E6E9BD26A4AEDC1C20C6EE 6B51F1020293AA ====

    ////////////////////////////////////////////////////////////////////////////////

    -----------------------

    DON'T MODIFY THIS FILE

    -----------------------

    PERFORMER: auCDtect Task Manager, ver. 1.6.0 RC1 build 1.6.0.1
    Copyright (c) 2008-2010 y-soft. All rights reserved
    http://y-soft.org

    ANALYZER: auCDtect: CD records authenticity detector, version 0.8.2
    Copyright (c) 2004 Oleg Berngardt. All rights reserved.
    Copyright (c) 2004 Alexander Djourik. All rights reserved.


    FILE: Magnum - Sacred Blood ''Divine'' Lies (RBNCD-1206).flac
    Size: 544422357 Hash: 202E4A2E0A6B89F605060BBFEDE499B2 Accuracy: -m0
    Conclusion: CDDA 100%
    Signature: 39926C2D24496A54CC1C9D8C83D2318BABD80638

    /////////////////////////////////////////////////////////////////////////////

    foobar2000 1.3.14 / Dynamic Range Meter 1.1.1
    log date: 2017-02-22 18:50:08

    --------------------------------------------------------------------------------
    Analyzed: Magnum / Sacred Blood 'Divine' Lies (RBNCD-1206)
    --------------------------------------------------------------------------------

    DR Peak RMS Duration Track
    --------------------------------------------------------------------------------
    DR5 -0.10 dB -6.98 dB 6:43 01-Sacred Blood 'Divine' Lies
    DR5 -0.10 dB -7.28 dB 5:48 02-Crazy Old Mothers
    DR5 -0.10 dB -7.87 dB 4:31 03-Gypsy Queen
    DR5 -0.03 dB -6.24 dB 5:28 04-Princess In Rags (The Cult)
    DR5 -0.14 dB -7.69 dB 5:27 05-Your Dreams Won't Die
    DR5 -0.10 dB -6.34 dB 4:33 06-Afraid Of The Night
    DR6 -0.10 dB -8.37 dB 4:57 07-A Forgotten Conversation
    DR5 -0.10 dB -7.06 dB 5:41 08-Quiet Rhapsody
    DR5 -0.10 dB -6.82 dB 6:19 09-Twelve Men Wise And Just
    DR5 -0.10 dB -7.26 dB 5:07 10-Don't Cry Baby
    DR5 -0.10 dB -6.02 dB 5:57 11-The Phantom Of Paradise Circus
    DR5 -0.10 dB -6.59 dB 4:50 12-Don't Grow Up
    DR5 -0.10 dB -6.11 dB 5:38 13-No God Or Saviour
    --------------------------------------------------------------------------------

    Number of tracks: 13
    Official DR value: DR5

    Samplerate: 44100 Hz
    Channels: 2
    Bits per sample: 16
    Bitrate: 1022 kbps
    Codec: FLAC
    ================================================== ==============================

    ///////////////////////////////////////////////////////////////////////////////

    [свернуть]
    Невероятно, но факт: заслуженнейшая британская группа Magnum, невзирая на свою слышимую с первого такта любой композиции врожденную «английскость» (в любой рок-энциклопедии про коллектив написано, что он «quintessentially British») так и не стала популярной в России, еще с 60-х одержимой всеобщей англофилией. И во всём мире – тоже. Только у себя на родине и в Германии квинтет под бессменным руководством гитариста и композитора Тони Кларкина всегда пользовался неизменной популярностью, о корнях которой – ниже. Но говоря о любом, тем более позднем, «постреюнионистском» альбоме Magnum, нельзя не вспомнить важную цитату из другого великого англичанина, Джорджа Оруэлла, о том, что «служба в Королевских военно-воздушных силах была важным средством преодоления сословных барьеров». То же можно сказать и о музыкантах состава и их службе в Magnum – давно ли, казалось бы, они были просто волосатыми провинциальными хулиганами в странных одеждах, а ныне – солидные мужи, не только музыкой, но и своим обликом выражающих уже полузабытую имперскую идею. Взгляните на фотографию на развороте буклета «Sacred Blood “Divine” Lies»: тут явно не хватает военно-морских мундиров! Тони и его парни держатся на фото с осанкой тех офицеров и джентльменов, что ровно век назад выводили свои дредноуты и линейные крейсера в Северное Море – и прямо-таки видится неслучайным, что последний альбом Magnum увидел свет за три месяца до векового юбилея Ютландской битвы…
    Если же отвлечься от национально-исторических аллюзий, то «Sacred Blood “Divine” Lies» – безусловно лучший альбом группы с момента реюниона 14 с лишним лет назад. Прежде всего, и это крайне удивительно, на 39 году карьеры Magnum в грамзаписи у Тони как единственного композитора группы всё еще не кончились замечательные песни и мелодии к ним, а голос Боба Кэтли, в отличие от иных конкурентов, вообще неподвластен влиянию времени. Кроме того, невзирая на понятные в современных условиях скромные бюджеты на запись, группа смогла преодолеть ненужную «цифроватость» студийного звучания, очень не шедшую ей к лицу. И, конечно, в альбом попали точно лучшие песни группы за последние 15 лет – каждому из десяти номеров здесь просто необходимо предпослать определения «настоящий» и «британский». Если оценивать программу в целом, то это, конечно, квинтэссенция того стиля, который некогда величали «помп-роком», мало чем уступающая «великолепной восьмёрке» с исторически лучшего альбома Magnum «Chase The Dragon» (1982). Другое дело, что гордый термин не в ходу ныне, поэтому материал подлежит сортировке: вот хард-рок («Afraid Of The Night» и «A Forgotten Conversation»), а вот натуральный имперский AOR(«Twelve Men Wise And Just» и «Don’t Cry Baby») во всей своей красе. Есть и обоснванная попытка стилизации под собственные радиохиты 80-х («Princess In Rags (The Cult)»), а полубаллада «Your Dreams Won’t Die» при всем своем рождественском настроении является стопроцентно британским произведением того рода, где в конце ему объяснят: «…И помни, что метёт метель, / И помни, что идёт война». Открывающее же альбом трио композиций (титульный трек, «Crazy Old Mothers» и «Gypsy Queen») – настоящие серьезные рок-гимны, сочиненные и исполненные с мерой ответственности, доступной лишь музыкантам того поколения, которые помнят, какую Англию они потеряли. Что ж, понятно, почему в Великобритании Magnum был и остается государственной группой именно на народном уровне, что ж до популярности в Германии – этой стране дважды за последний век приходилось сходиться со своим островным соседом в битвах не на жизнь, а на смерть; следовательно, немцы хоть каким боком способны понять смысл этих песен. И, сами понимаете, на «Sacred Blood “Divine” Lies» хочется навесить еще одно общеизвестное определение: «их лучший час». Правда, не час, а только 55 минут – но что это меняет?


    Magnum - Crazy Old Mothers



    Скрытый текст (вы должны войти под своим логином или зарегистрироваться и иметь 5 сообщение(ий)):
    У вас нет прав чтобы видеть скрытый текст, содержащийся здесь.


  8. 5 пользователя(ей) сказали cпасибо:

    Coroed (10.10.2018), kalach (10.10.2018), Puharik (10.10.2018), Riddler (10.10.2018), Елизавета (10.10.2018)

  9. #14
    Супер модератор Array Аватар для aheron
    Регистрация
    11.06.2018
    Сообщений
    218
    Сказал(а) спасибо
    2,235
    Поблагодарили 1,126 раз(а)
    в 172 сообщениях
    Онлайн
    3 Дней 19 ч 9 мин 26 сек
    В среднем
    1 мин 49 сек
    Magnum - Sleepwalking (1992)





    Performer: Magnum
    Album: Sleepwalking
    Label: Music For Nations. Made in UK.
    Catalog #: CDMFN 143
    Style: AOR, Hard Rock
    Year: 1992
    Format: FLAC (image + .cue)
    Bitrate: lossless
    Covers: in archive
    Amount of tracks: 11
    Size ZIP: ~ 368 mb

    ••• Tracklist •••

    01. Magnum - Stormy Weather [4:43]
    02. Magnum - Too Much Too Ask [5:00]
    03. Magnum - You're The One [3:46]
    04. Magnum - The Flood [6:04]
    05. Magnum - Broken Wheel [4:01]
    06. Magnum - Just One More Heartbreak [4:12]
    07. Magnum - Every Woman, Every Man [4:08]
    08. Magnum - Only In America [4:00]
    09. Magnum - Sleepwalking [5:41]
    10. Magnum - Prayer For A Stranger [4:23]
    11. Magnum - The Long Ride [6:54]
    --------------------------
    Total time: [52:52]

    Personnel:
    =======================
    Tony Clarkin — guitar
    Bob Catley — vocals
    Wally Lowe — bass guitar
    Mark Stanway — keyboards
    Mickey Barker — drums

    Additional musicians
    ------------------------
    York Gibson — keyboard programming
    Wesley Magoogan — saxophone on "Every Woman, Every Man" and "The Long Ride"
    Pritam Singh — tabla on "Prayer For A Stranger"
    Gary Sanders — harmonica on "The Long Ride"

    Notes:
    =====================
    Ⓟ 1992 Time Productions Limited
    Ⓒ 1992 Music For Nations
    CD manufactured in Austria

    Released - October 1992
    Recorded - Zella Studios Birmingham United Kingdom 1992
    Producer - Tony Clarkin
    [свернуть]

    ••• Log EAC + Log auCDtect + Dynamic Range Meter + Spectrum •••

    Exact Audio Copy V1.3 from 2. September 2016

    EAC extraction logfile from 14. February 2017, 10:11

    Magnum / Sleepwalking

    Used drive : TSSTcorpCDDVDW SH-S222A Adapter: 1 ID: 0

    Read mode : Secure
    Utilize accurate stream : Yes
    Defeat audio cache : Yes
    Make use of C2 pointers : No

    Read offset correction : 6
    Overread into Lead-In and Lead-Out : No
    Fill up missing offset samples with silence : Yes
    Delete leading and trailing silent blocks : No
    Null samples used in CRC calculations : Yes
    Used interface : Native Win32 interface for Win NT & 2000

    Used output format : User Defined Encoder
    Selected bitrate : 896 kBit/s
    Quality : High
    Add ID3 tag : No
    Command line compressor : C:\Program Files\Exact Audio Copy\FLAC\FLAC.EXE
    Additional command line options : -6 -V -T "ARTIST=%artist%" -T "TITLE=%title%" -T "ALBUM=%albumtitle%" -T "DATE=%year%" -T "TRACKNUMBER=%tracknr%" -T "GENRE=%genre%" -T "COMMENT=%comment%" -T "BAND=%albuminterpret%" -T "ALBUMARTIST=%albuminterpret%" -T "COMPOSER=%composer%" %haslyrics%--tag-from-file=LYRICS="%lyricsfile%"%haslyrics% -T "DISCNUMBER=%cdnumber%" -T "TOTALDISCS=%totalcds%" -T "TOTALTRACKS=%numtracks%" %hascover%--picture="%coverfile%"%hascover% %source% -o %dest%


    TOC of the extracted CD

    Track | Start | Length | Start sector | End sector
    ---------------------------------------------------------
    1 | 0:00.00 | 4:43.20 | 0 | 21244
    2 | 4:43.20 | 5:00.05 | 21245 | 43749
    3 | 9:43.25 | 3:45.45 | 43750 | 60669
    4 | 13:28.70 | 6:03.68 | 60670 | 87962
    5 | 19:32.63 | 4:00.60 | 87963 | 106022
    6 | 23:33.48 | 4:12.15 | 106023 | 124937
    7 | 27:45.63 | 4:08.17 | 124938 | 143554
    8 | 31:54.05 | 4:00.33 | 143555 | 161587
    9 | 35:54.38 | 5:41.12 | 161588 | 187174
    10 | 41:35.50 | 4:22.55 | 187175 | 206879
    11 | 45:58.30 | 6:54.33 | 206880 | 237962


    Range status and errors

    Selected range

    Filename D:\Music\Мои раздачи\Magnum - Sleepwalking (1992)\Magnum - Sleepwalking.wav

    Peak level 100.0 %
    Extraction speed 6.7 X
    Range quality 100.0 %
    Test CRC FFFF722F
    Copy CRC FFFF722F
    Copy OK

    No errors occurred

    End of status report

    ---- CUETools DB Plugin V2.1.6

    [CTDB TOCID: aly94Fr3ZJKgc7xJ6G95yQYGc8w-] found
    Submit result: already submitted
    Track | CTDB Status
    1 | (2/2) Accurately ripped
    2 | (2/2) Accurately ripped
    3 | (2/2) Accurately ripped
    4 | (2/2) Accurately ripped
    5 | (2/2) Accurately ripped
    6 | (2/2) Accurately ripped
    7 | (2/2) Accurately ripped
    8 | (2/2) Accurately ripped
    9 | (2/2) Accurately ripped
    10 | (2/2) Accurately ripped
    11 | (2/2) Accurately ripped


    ==== Log checksum 45257ABE96953748CA4FC3DFB19A05C53A3703A599669249A7 A5A71D7408A808 ====

    /////////////////////////////////////////////////////////////////////////////

    -----------------------

    DON'T MODIFY THIS FILE

    -----------------------

    PERFORMER: auCDtect Task Manager, ver. 1.6.0 RC1 build 1.6.0.1
    Copyright (c) 2008-2010 y-soft. All rights reserved
    http://y-soft.org

    ANALYZER: auCDtect: CD records authenticity detector, version 0.8.2
    Copyright (c) 2004 Oleg Berngardt. All rights reserved.
    Copyright (c) 2004 Alexander Djourik. All rights reserved.


    FILE: Magnum - Sleepwalking.flac
    Size: 364433790 Hash: 76DD7EF9D50E765DB0D087E8D52CCCA4 Accuracy: -m0
    Conclusion: CDDA 100%
    Signature: EB2C9D6D3638511BB6BA42831A67E2CFE3864946

    ///////////////////////////////////////////////////////////////////////////////

    foobar2000 1.3.14 / Dynamic Range Meter 1.1.1
    log date: 2017-02-22 18:09:03

    --------------------------------------------------------------------------------
    Analyzed: Magnum / Sleepwalking
    --------------------------------------------------------------------------------

    DR Peak RMS Duration Track
    --------------------------------------------------------------------------------
    DR10 -0.18 dB -12.81 dB 4:43 01-Stormy Weather
    DR10 0.00 dB -12.04 dB 5:00 02-Too Much Too Ask
    DR10 0.00 dB -12.22 dB 3:46 03-You're The One
    DR11 0.00 dB -14.06 dB 6:04 04-The Flood
    DR11 0.00 dB -13.50 dB 4:01 05-Broken Wheel
    DR10 0.00 dB -12.25 dB 4:12 06-Just One More Heartbreak
    DR11 0.00 dB -12.96 dB 4:08 07-Every Woman, Every Man
    DR10 0.00 dB -14.03 dB 4:00 08-Only In America
    DR14 0.00 dB -15.82 dB 5:41 09-Sleepwalking
    DR10 0.00 dB -12.35 dB 4:23 10-Prayer For A Stranger
    DR11 0.00 dB -13.83 dB 6:54 11-The Long Ride
    --------------------------------------------------------------------------------

    Number of tracks: 11
    Official DR value: DR11

    Samplerate: 44100 Hz
    Channels: 2
    Bits per sample: 16
    Bitrate: 918 kbps
    Codec: FLAC
    ================================================== ==============================

    ////////////////////////////////////////////////////////////////////////////////

    [свернуть]

    Sleepwalking - девятый студийный альбом английской рок-группы Magnum, выпущенный в 1992 году. После решения покинуть Polydor, Sleepwalking был записан в течение шести месяцев и является первым выпуском собственного альбома Magnum с The Eleventh Hour. Альбом из среднего периода их творчества еще с тем из 80х арт-роковым направлением. Ровный, красивый Hard Rock/AOR с роскошной гитарой и клавишными и конечно неповторимым голосом Боба Кэтли. Преимущество каждого альбома британцев - яркие, запоминающиеся мелодии и этот не исключение.
    Magnum - Sleepwalking (Full Album)



    Скрытый текст (вы должны войти под своим логином или зарегистрироваться и иметь 5 сообщение(ий)):
    У вас нет прав чтобы видеть скрытый текст, содержащийся здесь.

  10. 5 пользователя(ей) сказали cпасибо:

    Coroed (11.10.2018), kalach (11.10.2018), Puharik (11.10.2018), Riddler (11.10.2018), Елизавета (13.10.2018)

  11. #15
    Супер модератор Array Аватар для aheron
    Регистрация
    11.06.2018
    Сообщений
    218
    Сказал(а) спасибо
    2,235
    Поблагодарили 1,126 раз(а)
    в 172 сообщениях
    Онлайн
    3 Дней 19 ч 9 мин 26 сек
    В среднем
    1 мин 49 сек
    Magnum - The Eleventh Hour! (1983) [Reissue 1988]





    Performer: Magnum
    Album: The Eleventh Hour!
    Label: Bellaphon. Made in Germany.
    Catalog #: 288-07-114
    Style: Prog Rock, Classic Rock
    Year: 1983 (Reissue 1988)
    Format: FLAC (image + .cue)
    Bitrate: lossless
    Covers: in archive
    Amount of tracks: 10
    Size ZIP: ~ 280 mb

    ••• Tracklist •••

    01. Magnum - Hit And Run [3:40]
    02. Magnum - One Night Of Passion [3:49]
    03. Magnum - The Word [4:52]
    04. Magnum - Young And Precious Souls [4:03]
    05. Magnum - Road To Paradise [3:30]
    06. Magnum - The Prize [3:40]
    07. Magnum - Breakdown [3:59]
    08. Magnum - The Great Disaster [3:48]
    09. Magnum - Vicious Companions [3:35]
    10. Magnum - So Far Away [4:34]
    --------------------------
    Total time: [39:30]

    Personnel
    • Bob Catley – vocals
    • Tony Clarkin – guitar
    • Wally Lowe – bass guitar
    • Mark Stanway – keyboards
    • Kex Gorin – drums

    Additional musicians
    • Robin George – rhythm guitar (on 13 – 16)

    Production
    • Recorded at Portland Studios, London
    • Mixed at Odyssey Studios, London
    • Produced by Tony Clarkin
    • Assisted by Bob Catley
    • Engineered by Dave Garland

    Notes:
    =====================
    Ⓟ 1988 Bellaphon

    Manufactured and distributed by Bellaphon, Germany.
    [свернуть]

    ••• Log EAC + Log auCDtect + Dynamic Range Meter + Spectrum •••

    Exact Audio Copy V1.0 beta 6 from 9. April 2015

    EAC extraction logfile from 21. July 2015, 17:29

    Magnum / The Eleventh Hour

    Used drive : HL-DT-STDVDRAM GH22NS40 Adapter: 1 ID: 0

    Read mode : Secure
    Utilize accurate stream : Yes
    Defeat audio cache : Yes
    Make use of C2 pointers : No

    Read offset correction : 667
    Overread into Lead-In and Lead-Out : No
    Fill up missing offset samples with silence : Yes
    Delete leading and trailing silent blocks : No
    Null samples used in CRC calculations : Yes
    Used interface : Native Win32 interface for Win NT & 2000

    Used output format : User Defined Encoder
    Selected bitrate : 1024 kBit/s
    Quality : High
    Add ID3 tag : Yes
    Command line compressor : C:\Program Files\Exact Audio Copy\Flac\flac.exe
    Additional command line options : -V -8 -T "Date=%year%" -T "Genre=%genre%" %source%


    TOC of the extracted CD

    Track | Start | Length | Start sector | End sector
    ---------------------------------------------------------
    1 | 0:00.00 | 3:40.37 | 0 | 16536
    2 | 3:40.37 | 3:49.13 | 16537 | 33724
    3 | 7:29.50 | 4:52.37 | 33725 | 55661
    4 | 12:22.12 | 4:03.00 | 55662 | 73886
    5 | 16:25.12 | 3:30.25 | 73887 | 89661
    6 | 19:55.37 | 3:39.50 | 89662 | 106136
    7 | 23:35.12 | 3:58.70 | 106137 | 124056
    8 | 27:34.07 | 3:47.43 | 124057 | 141124
    9 | 31:21.50 | 3:35.37 | 141125 | 157286
    10 | 34:57.12 | 4:33.60 | 157287 | 177821


    Range status and errors

    Selected range

    Filename I:\Rips\Magnum - The Eleventh Hour.wav

    Peak level 100.0 %
    Extraction speed 1.6 X
    Range quality 100.0 %
    Test CRC 946DED98
    Copy CRC 946DED98
    Copy OK

    No errors occurred


    AccurateRip summary

    Track 1 accurately ripped (confidence 5) [77F560AD] (AR v2)
    Track 2 accurately ripped (confidence 5) [3B334C69] (AR v2)
    Track 3 accurately ripped (confidence 5) [FD2529D7] (AR v2)
    Track 4 accurately ripped (confidence 5) [0FAB692F] (AR v2)
    Track 5 accurately ripped (confidence 5) [6C7A4B71] (AR v2)
    Track 6 accurately ripped (confidence 5) [4F0AF589] (AR v2)
    Track 7 accurately ripped (confidence 5) [C1BB7B63] (AR v2)
    Track 8 accurately ripped (confidence 5) [FA2F853D] (AR v2)
    Track 9 accurately ripped (confidence 5) [43F7882B] (AR v2)
    Track 10 accurately ripped (confidence 5) [ECD56177] (AR v2)

    All tracks accurately ripped

    End of status report

    ---- CUETools DB Plugin V2.1.6

    [CTDB TOCID: fbsHzx5IwN7l22JzQURUnGhP3Jw-] found
    Submit result: already submitted
    Track | CTDB Status
    1 | (8/8) Accurately ripped
    2 | (8/8) Accurately ripped
    3 | (8/8) Accurately ripped
    4 | (8/8) Accurately ripped
    5 | (8/8) Accurately ripped
    6 | (8/8) Accurately ripped
    7 | (8/8) Accurately ripped
    8 | (8/8) Accurately ripped
    9 | (8/8) Accurately ripped
    10 | (8/8) Accurately ripped


    ==== Log checksum 04E95247F6219665270BB7FE78F9372380006F26B58D073D5D179574F6FB235C ====

    //////////////////////////////////////////////////////////////////////////////////

    -----------------------

    DON'T MODIFY THIS FILE

    -----------------------

    PERFORMER: auCDtect Task Manager, ver. 1.6.0 RC1 build 1.6.0.1
    Copyright (c) 2008-2010 y-soft. All rights reserved
    http://y-soft.org

    ANALYZER: auCDtect: CD records authenticity detector, version 0.8.2
    Copyright (c) 2004 Oleg Berngardt. All rights reserved.
    Copyright (c) 2004 Alexander Djourik. All rights reserved.


    FILE: Magnum - The Eleventh Hour.flac
    Size: 248246067 Hash: 604770E5622258D00EFA007A084FFFA6 Accuracy: -m0
    Conclusion: CDDA 100%
    Signature: 054F28B0A9F2546A2121A5C1CAE0AA2107C744FC

    //////////////////////////////////////////////////////////////////////////////

    foobar2000 1.3.9 / Dynamic Range Meter 1.1.1
    log date: 2016-01-10 21:01:20

    --------------------------------------------------------------------------------
    Analyzed: Magnum / The Eleventh Hour
    --------------------------------------------------------------------------------

    DR Peak RMS Duration Track
    --------------------------------------------------------------------------------
    DR14 -0.03 dB -16.26 dB 3:40 01-Hit And Run
    DR14 -0.13 dB -16.98 dB 3:49 02-One Night Of Passion
    DR15 -0.44 dB -19.14 dB 4:52 03-The Word
    DR13 -1.46 dB -16.31 dB 4:03 04-Young And Precious Souls
    DR14 0.00 dB -16.78 dB 3:30 05-Road To Paradise
    DR14 -0.25 dB -17.00 dB 3:40 06-The Prize
    DR13 -0.11 dB -15.94 dB 3:59 07-Breakdown
    DR13 0.00 dB -15.71 dB 3:48 08-The Great Disaster
    DR14 0.00 dB -18.16 dB 3:35 09-Vicious Companions
    DR14 -0.05 dB -18.78 dB 4:34 10-So Far Away
    --------------------------------------------------------------------------------

    Number of tracks: 10
    Official DR value: DR14

    Samplerate: 44100 Hz
    Channels: 2
    Bits per sample: 16
    Bitrate: 837 kbps
    Codec: FLAC
    ================================================================================

    //////////////////////////////////////////////////////////////////////////////

    [свернуть]

    The Eleventh Hour! (Одиннадцатый час) - четвертый студийный альбом английской рок-группы Magnum, выпущенный в 1983 году компанией Jet Records.


    Скрытый текст (вы должны войти под своим логином или зарегистрироваться и иметь 5 сообщение(ий)):
    У вас нет прав чтобы видеть скрытый текст, содержащийся здесь.


  12. 5 пользователя(ей) сказали cпасибо:

    Coroed (12.10.2018), kalach (13.10.2018), Puharik (12.10.2018), Riddler (12.10.2018), Елизавета (13.10.2018)

  13. #16
    Супер модератор Array Аватар для aheron
    Регистрация
    11.06.2018
    Сообщений
    218
    Сказал(а) спасибо
    2,235
    Поблагодарили 1,126 раз(а)
    в 172 сообщениях
    Онлайн
    3 Дней 19 ч 9 мин 26 сек
    В среднем
    1 мин 49 сек
    Magnum - Vigilante (1986)





    Performer: Magnum
    Album: Vigilante
    Label: Polydor. Made in Germany.
    Catalog #: 829 986-2
    Style: Hardrock, Prog Rock, Arena Rock
    Year: 1986
    Format: FLAC (image + .cue)
    Bitrate: lossless
    Covers: in archive
    Amount of tracks: 9
    Size ZIP: ~ 373 mb

    ••• Tracklist •••

    01. Magnum - Lonely Night [3:48]
    02. Magnum - Need A Lot Of Love [4:48]
    03. Magnum - Sometime Love [4:20]
    04. Magnum - Midnight (You Won't Be Sleeping) [4:01]
    05. Magnum - Red On The Highway [4:15]
    06. Magnum - Holy Rider [5:19]
    07. Magnum - When The World Comes Down [5:23]
    08. Magnum - Vigilante [6:40]
    09. Magnum - Back Street Kid [5:01]
    --------------------------
    Total time: [43:34]

    Personnel
    • Bob Catley — vocals
    • Tony Clarkin — guitar
    • Wally Lowe — bass guitar
    • Mark Stanway — keyboards
    • Mickey Barker — drums

    Additional musicians
    • Roger Taylor — backing vocals on "When The World Comes Down" and "Sometime Love"
    • Daniel Bourquin — saxophone on "Midnight (You Won't Be Sleeping)"


    Notes:
    =====================
    Ⓟ 1986 Polydor International GMBH, Hamburg
    Ⓒ 1986 Time Records Ltd.
    [свернуть]

    ••• Log EAC + Log auCDtect + Dynamic Range Meter + Spectrum •••

    Exact Audio Copy V1.0 beta 3 from 29. August 2011

    EAC extraction logfile from 7. April 2015, 18:23

    Magnum / Vigilante

    Used drive : HL-DT-STDVDRAM GH22NS40 Adapter: 4 ID: 0

    Read mode : Secure
    Utilize accurate stream : Yes
    Defeat audio cache : Yes
    Make use of C2 pointers : No

    Read offset correction : 667
    Overread into Lead-In and Lead-Out : No
    Fill up missing offset samples with silence : Yes
    Delete leading and trailing silent blocks : No
    Null samples used in CRC calculations : Yes
    Used interface : Native Win32 interface for Win NT & 2000

    Used output format : User Defined Encoder
    Selected bitrate : 1024 kBit/s
    Quality : High
    Add ID3 tag : Yes
    Command line compressor : C:\Program Files\FLAC\flac.exe
    Additional command line options : -V -8 -T "Date=%year%" -T "Genre=%genre%" %source%


    TOC of the extracted CD

    Track | Start | Length | Start sector | End sector
    ---------------------------------------------------------
    1 | 0:00.33 | 3:47.60 | 33 | 17117
    2 | 3:48.18 | 4:47.70 | 17118 | 38712
    3 | 8:36.13 | 4:19.45 | 38713 | 58182
    4 | 12:55.58 | 4:01.20 | 58183 | 76277
    5 | 16:57.03 | 4:14.72 | 76278 | 95399
    6 | 21:12.00 | 5:18.60 | 95400 | 119309
    7 | 26:30.60 | 5:22.70 | 119310 | 143529
    8 | 31:53.55 | 6:39.43 | 143530 | 173497
    9 | 38:33.23 | 5:01.07 | 173498 | 196079


    Range status and errors

    Selected range

    Filename I:\Rips\Magnum - Vigilante.wav

    Peak level 91.2 %
    Extraction speed 1.6 X
    Range quality 100.0 %
    Test CRC 616171BA
    Copy CRC 616171BA
    Copy OK

    No errors occurred


    AccurateRip summary

    Track 1 accurately ripped (confidence 30) [94724694] (AR v2)
    Track 2 accurately ripped (confidence 28) [4AF9B83C] (AR v2)
    Track 3 accurately ripped (confidence 29) [652788F7] (AR v2)
    Track 4 accurately ripped (confidence 29) [42273C1A] (AR v2)
    Track 5 accurately ripped (confidence 29) [246E308F] (AR v2)
    Track 6 accurately ripped (confidence 28) [A62DA41E] (AR v2)
    Track 7 accurately ripped (confidence 27) [EB31ADA6] (AR v2)
    Track 8 accurately ripped (confidence 28) [BF1F5874] (AR v2)
    Track 9 accurately ripped (confidence 27) [FE949AB0] (AR v2)

    All tracks accurately ripped

    End of status report

    ==== Log checksum BA95BC866B4BFAC9B0E8E4618209174169D0190F8F65049C4A A55D719EC075B7 ====

    /////////////////////////////////////////////////////////////////////////

    -----------------------

    DON'T MODIFY THIS FILE

    -----------------------

    PERFORMER: auCDtect Task Manager, ver. 1.6.0 RC1 build 1.6.0.1
    Copyright (c) 2008-2010 y-soft. All rights reserved
    http://y-soft.org

    ANALYZER: auCDtect: CD records authenticity detector, version 0.8.2
    Copyright (c) 2004 Oleg Berngardt. All rights reserved.
    Copyright (c) 2004 Alexander Djourik. All rights reserved.


    FILE: Magnum - Vigilante.flac
    Size: 280095183 Hash: E81553D84CEAA82C7507B7F841A2CBB0 Accuracy: -m0
    Conclusion: MPEG 95%
    Signature: F32D7E7D1B744DF6CD33305D290F7327152AA0FE

    ///////////////////////////////////////////////////////////////////////////////

    foobar2000 1.3.8 / Dynamic Range Meter 1.1.1
    log date: 2015-06-20 23:16:58

    --------------------------------------------------------------------------------
    Analyzed: Magnum / Vigilante
    --------------------------------------------------------------------------------

    DR Peak RMS Duration Track
    --------------------------------------------------------------------------------
    DR16 -1.09 dB -19.43 dB 3:48 01-Lonely Night
    DR13 -0.80 dB -17.61 dB 4:48 02-Need A Lot Of Love
    DR14 -1.39 dB -16.95 dB 4:20 03-Sometime Love
    DR13 -3.17 dB -18.93 dB 4:01 04-Midnight (You Won't Be Sleeping)
    DR12 -2.46 dB -16.62 dB 4:15 05-Red On The Highway
    DR13 -2.98 dB -17.89 dB 5:19 06-Holy Rider
    DR15 -0.80 dB -19.01 dB 5:23 07-When The World Comes Down
    DR13 -0.80 dB -16.93 dB 6:40 08-Vigilante
    DR12 -0.80 dB -15.81 dB 5:01 09-Back Street Kid
    --------------------------------------------------------------------------------

    Number of tracks: 9
    Official DR value: DR13

    Samplerate: 44100 Hz
    Channels: 2
    Bits per sample: 16
    Bitrate: 857 kbps
    Codec: FLAC
    ================================================== ==============================

    ///////////////////////////////////////////////////////////////////////////////

    [свернуть]

    Vigilante - шестой студийный альбом английской рок-группы Magnum, выпущенный в 1986 году на Polydor. Воспользовавшись успехом «Ночи рассказчика», «Магнум» перешел в более коммерческое направление с «Виджиланте».



    Magnum - Lonely Nights



    Скрытый текст (вы должны войти под своим логином или зарегистрироваться и иметь 5 сообщение(ий)):
    У вас нет прав чтобы видеть скрытый текст, содержащийся здесь.


  14. 5 пользователя(ей) сказали cпасибо:

    Coroed (13.10.2018), kalach (13.10.2018), Puharik (13.10.2018), Riddler (13.10.2018), Елизавета (13.10.2018)

  15. #17
    Супер модератор Array Аватар для aheron
    Регистрация
    11.06.2018
    Сообщений
    218
    Сказал(а) спасибо
    2,235
    Поблагодарили 1,126 раз(а)
    в 172 сообщениях
    Онлайн
    3 Дней 19 ч 9 мин 26 сек
    В среднем
    1 мин 49 сек
    Magnum - Wings Of Heaven (1988)





    Performer: Magnum
    Album: Wings Of Heaven
    Label: Polydor. Made in Germany.
    Catalog #: 835277-2
    Style: Hard Rock, Arena Rock
    Year: 1988
    Format: FLAC (image + .cue)
    Bitrate: lossless
    Covers: in archive
    Amount of tracks: 8
    Size ZIP: ~ 370 mb

    ••• Tracklist •••

    01. Magnum - Days Of No Trust [5:24]
    02. Magnum - Wild Swan [6:15]
    03. Magnum - Start Talking Love [3:38]
    04. Magnum - One Step Away [4:39]
    05. Magnum - It Must Have Been Love [5:16]
    06. Magnum - Different Worlds [4:40]
    07. Magnum - Pray For The Day [3:48]
    08. Magnum - Don't Wake The Lion (Too Old To Die Young) [10:34]
    --------------------------
    Total time: [44:13]

    Personnel
    • Bob Catley — vocals
    • Tony Clarkin – guitar
    • Wally Lowe – bass guitar
    • Mark Stanway – keyboards
    • Mickey Barker – drums

    Additional musicians
    • Attie Bauw – Fairlight rogrammer
    • The London Gospel Choir – backing vocals on "It Must Have Been Love"
    • Max Werner – backing vocals on "Different Worlds"


    Notes:
    =====================
    Ⓟ 1988 PolyGram International Music B.V.
    Ⓒ 1988 PolyGram International Music B.V.
    Recorded At – Wisseloord Studios
    Recorded At – Sarm West Studios
    Mixed At – Sarm West Studios
    Made By – PDO, Germany

    Mixed at Sarm West, England except "Days Of No Trust" recorded and mixed at Sarm West, England
    [свернуть]

    ••• Log EAC + Log auCDtect + Dynamic Range Meter + Spectrum •••

    Exact Audio Copy V1.0 beta 6 from 9. April 2015

    EAC extraction logfile from 12. July 2015, 9:44

    Magnum / Wings Of Heaven

    Used drive : HL-DT-STDVDRAM GH22NS40 Adapter: 1 ID: 0

    Read mode : Secure
    Utilize accurate stream : Yes
    Defeat audio cache : Yes
    Make use of C2 pointers : No

    Read offset correction : 667
    Overread into Lead-In and Lead-Out : No
    Fill up missing offset samples with silence : Yes
    Delete leading and trailing silent blocks : No
    Null samples used in CRC calculations : Yes
    Used interface : Native Win32 interface for Win NT & 2000

    Used output format : User Defined Encoder
    Selected bitrate : 1024 kBit/s
    Quality : High
    Add ID3 tag : Yes
    Command line compressor : C:\Program Files\Exact Audio Copy\Flac\flac.exe
    Additional command line options : -V -8 -T "Date=%year%" -T "Genre=%genre%" %source%


    TOC of the extracted CD

    Track | Start | Length | Start sector | End sector
    ---------------------------------------------------------
    1 | 0:00.33 | 5:23.52 | 33 | 24309
    2 | 5:24.10 | 6:14.73 | 24310 | 52432
    3 | 11:39.08 | 3:38.07 | 52433 | 68789
    4 | 15:17.15 | 4:38.60 | 68790 | 89699
    5 | 19:56.00 | 5:16.23 | 89700 | 113422
    6 | 25:12.23 | 4:39.72 | 113423 | 134419
    7 | 29:52.20 | 3:47.48 | 134420 | 151492
    8 | 33:39.68 | 10:33.40 | 151493 | 199007


    Range status and errors

    Selected range

    Filename I:\Rips\Magnum - Wings Of Heaven.wav

    Peak level 100.0 %
    Extraction speed 1.9 X
    Range quality 100.0 %
    Test CRC 233030E3
    Copy CRC 233030E3
    Copy OK

    No errors occurred


    AccurateRip summary

    Track 1 accurately ripped (confidence 17) [B33564A8] (AR v2)
    Track 2 accurately ripped (confidence 17) [E0C84927] (AR v2)
    Track 3 accurately ripped (confidence 17) [A54B8669] (AR v2)
    Track 4 accurately ripped (confidence 17) [B7C05460] (AR v2)
    Track 5 accurately ripped (confidence 17) [A10210DF] (AR v2)
    Track 6 accurately ripped (confidence 17) [F8284771] (AR v2)
    Track 7 accurately ripped (confidence 18) [71D8BDE7] (AR v2)
    Track 8 accurately ripped (confidence 17) [551DCB5A] (AR v2)

    All tracks accurately ripped

    End of status report

    ---- CUETools DB Plugin V2.1.6

    [CTDB TOCID: kiw85VNMVwwj26_gl5dvF1pZX2Q-] found
    Submit result: already submitted
    Track | CTDB Status
    1 | (24/25) Accurately ripped
    2 | (24/25) Accurately ripped
    3 | (24/25) Accurately ripped
    4 | (24/25) Accurately ripped
    5 | (24/25) Accurately ripped
    6 | (24/25) Accurately ripped
    7 | (24/25) Accurately ripped
    8 | (24/25) Accurately ripped


    ==== Log checksum B964FDF954EEC5EBBF18C12588C41BB96FC29AD7A169BEC1EC 1DA2BC974207F9 ====

    /////////////////////////////////////////////////////////////////////////////

    -----------------------

    DON'T MODIFY THIS FILE

    -----------------------

    PERFORMER: auCDtect Task Manager, ver. 1.6.0 RC1 build 1.6.0.1
    Copyright (c) 2008-2010 y-soft. All rights reserved
    http://y-soft.org

    ANALYZER: auCDtect: CD records authenticity detector, version 0.8.2
    Copyright (c) 2004 Oleg Berngardt. All rights reserved.
    Copyright (c) 2004 Alexander Djourik. All rights reserved.


    FILE: Magnum - Wings Of Heaven.flac
    Size: 295605613 Hash: 2A0223BACB3EE52BBBFAD66EB576CA2C Accuracy: -m0
    Conclusion: ???
    Signature: 7A44E6399036542180BDCDFF106C949B86A15E50

    //////////////////////////////////////////////////////////////////////////////

    foobar2000 1.3.9 / Dynamic Range Meter 1.1.1
    log date: 2016-01-11 22:02:33

    --------------------------------------------------------------------------------
    Analyzed: Magnum / Wings Of Heaven
    --------------------------------------------------------------------------------

    DR Peak RMS Duration Track
    --------------------------------------------------------------------------------
    DR13 -0.58 dB -15.38 dB 5:24 01-Days Of No Trust
    DR12 0.00 dB -14.15 dB 6:15 02-Wild Swan
    DR11 -0.36 dB -13.38 dB 3:38 03-Start Talking Love
    DR11 -0.80 dB -15.15 dB 4:39 04-One Step Away
    DR12 0.00 dB -14.22 dB 5:16 05-It Must Have Been Love
    DR11 -1.52 dB -14.26 dB 4:40 06-Different Worlds
    DR12 -0.42 dB -13.52 dB 3:48 07-Pray For The Day
    DR12 -1.07 dB -15.15 dB 10:34 08-Don't Wake The Lion (Too Old To Die Young)
    --------------------------------------------------------------------------------

    Number of tracks: 8
    Official DR value: DR12

    Samplerate: 44100 Hz
    Channels: 2
    Bits per sample: 16
    Bitrate: 891 kbps
    Codec: FLAC
    ================================================== ==============================

    //////////////////////////////////////////////////////////////////////////////

    [свернуть]

    Wings of Heaven - седьмой студийный альбом английской рок-группы Magnum, выпущенный в 1988 году.


    Magnum - Wild Swan



    Скрытый текст (вы должны войти под своим логином или зарегистрироваться и иметь 5 сообщение(ий)):
    У вас нет прав чтобы видеть скрытый текст, содержащийся здесь.


  16. 6 пользователя(ей) сказали cпасибо:

    Coroed (13.10.2018), kalach (13.10.2018), Lupus (19.10.2018), Puharik (13.10.2018), Riddler (13.10.2018), Елизавета (13.10.2018)

Страница 2 из 2 ПерваяПервая 12

Информация о теме

Пользователи, просматривающие эту тему

Эту тему просматривают: 1 (пользователей: 0 , гостей: 1)

Социальные закладки

Социальные закладки

Ваши права

  • Вы не можете создавать новые темы
  • Вы не можете отвечать в темах
  • Вы не можете прикреплять вложения
  • Вы не можете редактировать свои сообщения
  •