Страница 2 из 2 ПерваяПервая 12
Показано с 11 по 17 из 17

Тема: Nazareth

  1. #1
    Супер модератор Array Аватар для aheron
    Регистрация
    11.06.2018
    Сообщений
    242
    Сказал(а) спасибо
    2,653
    Поблагодарили 1,347 раз(а)
    в 196 сообщениях
    Онлайн
    4 Дней 8 ч 30 сек
    В среднем
    2 мин 4 сек

    Nazareth






    Nazareth — шотландская рок-группа, созданная в 1968 году музыкантами группы The Shadettes в городе Данфермлин, Великобритания. Развивалась примерно в одно и то же время с другими известными хард-рок исполнителями того времени, такими как: Deep Purple, Black Sabbath, Uriah Heep и Led Zeppelin. Признана одной из наиболее заметных хард-рок групп в истории жанра. Классическим составом считается квартет в который вошли: вокалист Дэн Маккаферти, гитарист Мэнни Чарлтон, басист и гитарист Пит Эгнью и барабанщик Дэррил Свит, состав существовал с 1968 по 1990 годы. В настоящее время оригинальным участником является басист Пит Эгнью, вокалист Дэн Маккаферти, являющийся по признанию поклонников "визиткой группы", покинул коллектив в 2014 году по состоянию здоровья.
    Текущий состав: Пит Эгню — бас-гитара, бэк-вокал (1968—наши дни)
    Джимми Мюрисон — гитара (1994—наши дни)
    Ли Эгнью — ударные (1999—наши дни)
    Карл Сентанс — вокал (2015—наши дни)
    Бывшие участники: Дэн Маккаферти — вокал (1968—2013; в студийном формате: 2013—2014)
    Мэнни Чарлтон — гитара (1968—1990)
    Дэрэл Свит — ударные (1968—1999; умер в 1999)
    Зэл Клеминсон — гитара (1978—1980)
    Билли Ранкин — гитара (1980—1983, 1990—1994)
    Джон Лок — клавишные (1980—1982; умер в 2006)
    Ронни Лэйхи — клавишные (1994—2002)
    Линтон Осборн — вокал (2014—2015)

  2. 12 пользователя(ей) сказали cпасибо:

    Alp (Сегодня), Coroed (28.10.2018), hohho (28.10.2018), iFF65 (01.11.2018), kalach (28.10.2018), Lupus (28.10.2018), Puharik (28.10.2018), Riddler (28.10.2018), salimabi (01.11.2018), vlad56 (01.11.2018), Yuraved (28.10.2018), Елизавета (28.10.2018)

  3. #11
    Супер модератор Array Аватар для aheron
    Регистрация
    11.06.2018
    Сообщений
    242
    Сказал(а) спасибо
    2,653
    Поблагодарили 1,347 раз(а)
    в 196 сообщениях
    Онлайн
    4 Дней 8 ч 30 сек
    В среднем
    2 мин 4 сек
    Nazareth - No Jive (1991) [Edition 1993]





    Performer: Nazareth
    Album: No Jive
    Label: Griffin Music Inc.. Made in US.
    Catalog #: GN 03932-2, 55421 3932-2
    Style: Hard Rock
    Year: 1991 (1993)
    Format: FLAC (image + .cue)
    Bitrate: lossless
    Covers: in archive
    Amount of tracks: 11
    Size ZIP: ~ 366 mb

    ••• Tracklist •••

    01. Nazareth - Hire And Fire [5:14]
    02. Nazareth - Do You Wanna Play House [5:05]
    03. Nazareth - Right Between The Eyes [3:08]
    04. Nazareth - Every Time It Rains [4:18]
    05. Nazareth - Keeping Our Love Alive [3:21]
    06. Nazareth - Thinkin' Man's Nightmare [4:04]
    07. Nazareth - Cover Your Heart [4:35]
    08. Nazareth - Lap Of Luxury [3:58]
    09. Nazareth - (A) The Rowan Tree (traditional) (B) Tell Me That You Love Me [4:43]
    10. Nazareth - Cry Wolf [4:31]
    11. Nazareth - This Flight Tonight [3:36]
    --------------------------
    Total time: [46:33]

    Personnel:
    ================
    Dan McCafferty - vocals
    Billy Rankin - guitars
    Pete Agnew - bass guitar
    Darrell Sweet - drums and percussion

    Other credits
    --------------------
    Peter Bizarre - keyboards
    Roland Peil - percussion
    Engineered by Ian Remmer
    Executive Producers - Micky Berresheim & Alfie Falckenbach
    Mixed by Mike Ging
    Sleeve design & artwork - Eric Philippe

    Notes:
    ================
    Printed in Canada . Disc manufactured in the USA
    [свернуть]

    ••• Log EAC + Log auCDtect + Dynamic Range Meter + Spectrum •••

    Exact Audio Copy V0.99 prebeta 5 from 4. May 2009

    Отчёт EAC об извлечении, выполненном 6. июня 2010, 1:09

    Nazareth / No Jive

    Дисковод: Optiarc DVD RW AD-7200S Adapter: 2 ID: 0

    Режим чтения : Достоверность
    Использование точного потока : Да
    Отключение кэша аудио : Да
    Использование указателей C2 : Нет

    Коррекция смещения при чтении : 48
    Способность читать области Lead-in и Lead-out : Нет
    Заполнение пропущенных сэмплов тишиной : Да
    Удаление блоков с тишиной в начале и конце : Нет
    При вычислениях CRC использовались нулевые сэмплы : Да
    Интерфейс : Установленный внешний ASPI-интерфейс

    Выходной формат : Внутренние WAV-операции
    Формат сэмплов : 44.100 Гц; 16 бит; стерео


    TOC извлечённого CD

    Трек | Старт | Длительность | Начальный сектор | Конечный сектор
    ---------------------------------------------------------------------
    1 | 0:00.00 | 5:13.52 | 0 | 23526
    2 | 5:13.52 | 5:04.60 | 23527 | 46386
    3 | 10:18.37 | 3:08.15 | 46387 | 60501
    4 | 13:26.52 | 4:17.38 | 60502 | 79814
    5 | 17:44.15 | 3:21.37 | 79815 | 94926
    6 | 21:05.52 | 4:04.10 | 94927 | 113236
    7 | 25:09.62 | 4:35.33 | 113237 | 133894
    8 | 29:45.20 | 3:58.27 | 133895 | 151771
    9 | 33:43.47 | 4:42.38 | 151772 | 172959
    10 | 38:26.10 | 4:31.15 | 172960 | 193299
    11 | 42:57.25 | 3:35.57 | 193300 | 209481


    Характеристики диапазона извлечения и сообщения об ошибках

    Выбранный диапазон

    Имя файла E:\МОИ РАЗДАЧИ\Nazareth - No Jive 1993\Nazareth - No Jive.wav

    Пиковый уровень 100.0 %
    Качество диапазона 99.9 %
    CRC теста D5F66C35
    CRC копии D5F66C35
    Копирование... OK

    Ошибок не произошло


    AccurateRip: сводка

    Трек 1 точное извлечение (доверие 2) [6A444DC0]
    Трек 2 точное извлечение (доверие 2) [12A61C03]
    Трек 3 точное извлечение (доверие 2) [7F1590A3]
    Трек 4 точное извлечение (доверие 2) [A9A3AE96]
    Трек 5 точное извлечение (доверие 2) [CF4877DF]
    Трек 6 точное извлечение (доверие 2) [40CE7959]
    Трек 7 точное извлечение (доверие 2) [5E6AD7C1]
    Трек 8 точное извлечение (доверие 2) [F37E989C]
    Трек 9 точное извлечение (доверие 2) [4DF88DD4]
    Трек 10 точное извлечение (доверие 2) [88B3E20E]
    Трек 11 точное извлечение (доверие 2) [DFA830BF]

    Все треки извлечены точно

    Конец отчёта

    ////////////////////////////////////////////////////////////////////////////////

    -----------------------

    DON'T MODIFY THIS FILE

    -----------------------

    PERFORMER: auCDtect Task Manager, ver. 1.6.0 RC1 build 1.6.0.1
    Copyright (c) 2008-2010 y-soft. All rights reserved
    http://y-soft.org

    ANALYZER: auCDtect: CD records authenticity detector, version 0.8.2
    Copyright (c) 2004 Oleg Berngardt. All rights reserved.
    Copyright (c) 2004 Alexander Djourik. All rights reserved.


    FILE: Nazareth - No Jive.flac
    Size: 334629212 Hash: AEE784BD5516A8136891E82308248358 Accuracy: -m0
    Conclusion: CDDA 99%
    Signature: 4EF8D47DCAC429146AACCD583C4871D3FDCDEBEC

    /////////////////////////////////////////////////////////////////////////////////

    foobar2000 1.3 / Dynamic Range Meter 1.1.1
    log date: 2014-03-19 21:08:34

    --------------------------------------------------------------------------------
    Analyzed: Nazareth / No Jive
    --------------------------------------------------------------------------------

    DR Peak RMS Duration Track
    --------------------------------------------------------------------------------
    DR10 -0.84 dB -12.96 dB 5:14 01-Hire And Fire
    DR10 -0.59 dB -13.99 dB 5:05 02-Do You Wanna Play House
    DR10 0.00 dB -11.83 dB 3:08 03-Right Between The Eyes
    DR11 0.00 dB -14.10 dB 4:18 04-Every Time It Rains
    DR14 0.00 dB -16.89 dB 3:21 05-Keeping Our Love Alive
    DR13 -0.02 dB -14.63 dB 4:04 06-Thinkin' Man's Nightmare
    DR12 -0.06 dB -14.46 dB 4:35 07-Cover Your Heart
    DR12 -0.03 dB -13.49 dB 3:58 08-Lap Of Luxury
    DR11 0.00 dB -13.53 dB 4:43 09-(A) The Rowan Tree (traditional) (B) Tell Me That You Love Me
    DR12 0.00 dB -14.39 dB 4:31 10-Cry Wolf
    DR13 -1.65 dB -16.66 dB 3:36 11-This Flight Tonight
    --------------------------------------------------------------------------------

    Number of tracks: 11
    Official DR value: DR12

    Samplerate: 44100 Hz
    Channels: 2
    Bits per sample: 16
    Bitrate: 958 kbps
    Codec: FLAC
    ================================================== ==============================

    //////////////////////////////////////////////////////////////////////////////////

    [свернуть]

    No Jive — восемнадцатый студийный альбом британской группы Nazareth. Выпущен в 1991-м году Griffin Records.


    Nazareth - Every Time It Rains



    Скрытый текст (вы должны войти под своим логином или зарегистрироваться и иметь 5 сообщение(ий)):
    У вас нет прав чтобы видеть скрытый текст, содержащийся здесь.

  4. 10 пользователя(ей) сказали cпасибо:

    Coroed (09.11.2018), hohho (12.11.2018), kalach (09.11.2018), Lupus (09.11.2018), Puharik (09.11.2018), Riddler (09.11.2018), salimabi (09.11.2018), vlad56 (Вчера), Yuraved (10.11.2018), Елизавета (Вчера)

  5. #12
    Супер модератор Array Аватар для aheron
    Регистрация
    11.06.2018
    Сообщений
    242
    Сказал(а) спасибо
    2,653
    Поблагодарили 1,347 раз(а)
    в 196 сообщениях
    Онлайн
    4 Дней 8 ч 30 сек
    В среднем
    2 мин 4 сек
    Nazareth - No Mean City (1978) [Edition 1990]





    Performer: Nazareth
    Album: No Mean City
    Label: Castle Communications. Made in UK.
    Catalog #: CLACD 213
    Style: Hard Rock
    Year: 1978 (1990)
    Format: FLAC (image + .cue)
    Bitrate: lossless
    Covers: in archive
    Amount of tracks: 8
    Size ZIP: ~ 277 mb

    ••• Tracklist •••

    01. Nazareth - Just To Get Into It [4:24]
    02. Nazareth - May The Sunshine [4:57]
    03. Nazareth - Simple Solution (Parts 1 & 2) [5:01]
    04. Nazareth - Star [4:58]
    05. Nazareth - Claim To Fame [4:36]
    06. Nazareth - Whatever You Want Bebe [3:54]
    07. Nazareth - What's In It For Me [4:22]
    08. Nazareth - No Mean City (Parts 1 & 2) [6:29]
    --------------------------
    Total time: [38:39]

    Personnel:
    =====================
    Pete Agnew - bass guitar, backing vocals
    Dan McCafferty - lead vocals
    Manny Charlton - guitars
    Zal Cleminson - guitars
    Darrell Sweet - drums

    Notes:
    =====================
    Recorded at Ballastowell Farm, Isle Of Man with the Maison Rouge Mobile.
    Mixed at Mountain Studios, Montreux, Switzerland.
    A Mountain Records Production.

    Castle Communications CD-reissue from 1990. Made In France. Same tracklisting as the LP-version, not remastered.
    [свернуть]

    ••• Log EAC + Log auCDtect + Dynamic Range Meter + Spectrum •••

    Exact Audio Copy V1.0 beta 3 from 29. August 2011

    Отчёт EAC об извлечении, выполненном 5. марта 2013, 20:09

    Nazareth / No Mean City

    Дисковод: Optiarc DVD RW AD-5280S Adapter: 2 ID: 1

    Режим чтения : Достоверность
    Использование точного потока : Да
    Отключение кэша аудио : Да
    Использование указателей C2 : Нет

    Коррекция смещения при чтении : 48
    Способность читать области Lead-in и Lead-out : Нет
    Заполнение пропущенных сэмплов тишиной : Да
    Удаление блоков с тишиной в начале и конце : Нет
    При вычислениях CRC использовались нулевые сэмплы : Да
    Интерфейс : Установленный внешний ASPI-интерфейс

    Выходной формат : Внутренние WAV-операции
    Формат сэмплов : 44.100 Гц; 16 бит; стерео


    TOC извлечённого CD

    Трек | Старт | Длительность | Начальный сектор | Конечный сектор
    ---------------------------------------------------------------------
    1 | 0:00.33 | 4:23.45 | 33 | 19802
    2 | 4:24.03 | 4:56.72 | 19803 | 42074
    3 | 9:21.00 | 5:00.68 | 42075 | 64642
    4 | 14:21.68 | 4:57.47 | 64643 | 86964
    5 | 19:19.40 | 4:35.53 | 86965 | 107642
    6 | 23:55.18 | 3:53.42 | 107643 | 125159
    7 | 27:48.60 | 4:21.45 | 125160 | 144779
    8 | 32:10.30 | 6:29.08 | 144780 | 173962


    Характеристики диапазона извлечения и сообщения об ошибках

    Выбранный диапазон

    Имя файла D:\rip-flacmusic.ru\Nazareth - No Mean City.wav

    Пиковый уровень 100.0 %
    Скорость извлечения 3.6 X
    Качество диапазона 100.0 %
    CRC теста B09558B9
    CRC копии B09558B9
    Копирование... OK

    Ошибок не произошло


    AccurateRip: сводка

    Трек 1 : извлечено точно (доверие 6) [6369E419] (AR v1)
    Трек 2 : извлечено точно (доверие 6) [97291C90] (AR v1)
    Трек 3 : извлечено точно (доверие 6) [E0261386] (AR v1)
    Трек 4 : извлечено точно (доверие 6) [86A02721] (AR v1)
    Трек 5 : извлечено точно (доверие 6) [DE8469F5] (AR v1)
    Трек 6 : извлечено точно (доверие 6) [774824CD] (AR v1)
    Трек 7 : извлечено точно (доверие 6) [DBC7693C] (AR v1)
    Трек 8 : извлечено точно (доверие 6) [9396C5F9] (AR v1)

    Все треки извлечены точно

    Конец отчёта

    ==== Контрольная сумма отчёта B88FC4A3A7291E2C37D460A9B98C4AD74A7BD189F1F8222269 77ED0F98CC30ED ====

    //////////////////////////////////////////////////////////////////////////////

    -----------------------

    DON'T MODIFY THIS FILE

    -----------------------

    PERFORMER: auCDtect Task Manager, ver. 1.6.0 RC1 build 1.6.0.1
    Copyright (c) 2008-2010 y-soft. All rights reserved
    http://y-soft.org

    ANALYZER: auCDtect: CD records authenticity detector, version 0.8.2
    Copyright (c) 2004 Oleg Berngardt. All rights reserved.
    Copyright (c) 2004 Alexander Djourik. All rights reserved.


    FILE: Nazareth - No Mean City.flac
    Size: 264910387 Hash: E070766CE5B101A9353011C38F20DF16 Accuracy: -m0
    Conclusion: CDDA 100%
    Signature: BB151D663D093FAB4CB0E9EB6327CAFE8CDE8694

    ////////////////////////////////////////////////////////////////////////////////

    foobar2000 1.3.1 / Dynamic Range Meter 1.1.1
    log date: 2014-04-07 11:53:35

    --------------------------------------------------------------------------------
    Analyzed: Nazareth / No Mean City
    --------------------------------------------------------------------------------

    DR Peak RMS Duration Track
    --------------------------------------------------------------------------------
    DR11 -0.61 dB -13.33 dB 4:24 01-Just To Get Into It
    DR11 -0.17 dB -14.36 dB 4:57 02-May The Sunshine
    DR12 -1.36 dB -15.77 dB 5:01 03-Simple Solution (Parts 1 & 2)
    DR12 0.00 dB -14.49 dB 4:58 04-Star
    DR12 -0.55 dB -14.87 dB 4:36 05-Claim To Fame
    DR11 -0.41 dB -14.27 dB 3:54 06-Whatever You Want Bebe
    DR12 -0.78 dB -14.53 dB 4:22 07-What's In It For Me
    DR12 -0.54 dB -14.37 dB 6:29 08-No Mean City (Parts 1 & 2)
    --------------------------------------------------------------------------------

    Number of tracks: 8
    Official DR value: DR12

    Samplerate: 44100 Hz
    Channels: 2
    Bits per sample: 16
    Bitrate: 914 kbps
    Codec: FLAC
    ================================================== ==============================

    ////////////////////////////////////////////////////////////////////////////////

    [свернуть]

    No Mean City (рус. «Не слабый городок») — десятый студийный альбом группы Nazareth. Выпущен в январе 1979 компанией Mountain Records в Великобритании, Vertigo — в Европе, A&M Records — в Северной Америке. Название диска позаимствовано из романа Александра МакАртура и Кингсли Лонга «No Mean City» (1935 год) об уличных бандах в Глазго, использовавших в качестве основного оружия бритвенные лезвия. В качестве названия использованы слова апостола Павла о своём родном городе Тарсе из английского перевода Библии (Библия короля Якова). В Синодальном переводе словосочетание переведено как «небезызвестный город» (Деяния апостолов 21:39). Обложку альбома нарисовал Родни Мэттьюз, известный английский художник-иллюстратор в стиле фэнтези, создавший обложки для работ многих других исполнителей (Scorpions, Thin Lizzy, Рик Уэйкман и т. д.).


    Nazareth - Star



    Скрытый текст (вы должны войти под своим логином или зарегистрироваться и иметь 5 сообщение(ий)):
    У вас нет прав чтобы видеть скрытый текст, содержащийся здесь.


  6. 10 пользователя(ей) сказали cпасибо:

    Coroed (10.11.2018), hohho (12.11.2018), kalach (10.11.2018), Lupus (10.11.2018), Puharik (11.11.2018), Riddler (10.11.2018), vlad56 (Вчера), Yuraved (10.11.2018), Yurii (10.11.2018), Елизавета (Вчера)

  7. #13
    Супер модератор Array Аватар для aheron
    Регистрация
    11.06.2018
    Сообщений
    242
    Сказал(а) спасибо
    2,653
    Поблагодарили 1,347 раз(а)
    в 196 сообщениях
    Онлайн
    4 Дней 8 ч 30 сек
    В среднем
    2 мин 4 сек
    Nazareth - Play 'N' The Game (1976) [Edition 1990]





    Performer: Nazareth
    Album: Play 'N' The Game
    Label: Castle Communications/Castle Classics. Made in UK.
    Catalog #: CLACD 219
    Style: Hard Rock
    Year: 1976 (Reissue, Edition 1990)
    Format: FLAC (image + .cue)
    Bitrate: lossless
    Covers: in archive
    Amount of tracks: 9
    Size ZIP: ~ 233 mb

    ••• Tracklist •••

    01. Nazareth - Somebody To Roll [3:57]
    02. Nazareth - Down Home Girl [5:07]
    03. Nazareth - Flying [4:24]
    04. Nazareth - Waiting For the Man [4:57]
    05. Nazareth - Born To Love [4:00]
    06. Nazareth - I Want To Do Everything For You [4:25]
    07. Nazareth - I Don't Want To Go On Without You [3:50]
    08. Nazareth - Wild Honey [3:05]
    09. Nazareth - L.A. Girls [3:48]
    --------------------------
    Total time: [37:32]

    Personnel:
    =====================
    Dan McCafferty - vocals
    Darrell Sweet - percussion, drums, background vocals
    Pete Agnew - bass guitar, guitar, background vocals
    Manny Charlton - guitar

    Notes:
    =====================
    Recorded & mixed at "Le Studio".
    Mastered at Master Disc, New York.

    Licensed from Nazareth (Dunfermline) Ltd.
    ℗ 1976 Mountain Records (UK) LTD.
    © 1990 Castle Communications PLC.

    Made in England.
    [свернуть]

    ••• Log EAC + Log auCDtect + Dynamic Range Meter + Spectrum •••

    Exact Audio Copy V1.0 beta 3 from 29. August 2011

    Отчёт EAC об извлечении, выполненном 19. февраля 2013, 23:50

    Nazareth / Play 'N' The Game

    Дисковод: PLEXTOR DVDR PX-L890UE Adapter: 1 ID: 0

    Режим чтения : Достоверность
    Использование точного потока : Да
    Отключение кэша аудио : Да
    Использование указателей C2 : Нет

    Коррекция смещения при чтении : 6
    Способность читать области Lead-in и Lead-out : Нет
    Заполнение пропущенных сэмплов тишиной : Да
    Удаление блоков с тишиной в начале и конце : Нет
    При вычислениях CRC использовались нулевые сэмплы : Да
    Интерфейс : Установленный внешний ASPI-интерфейс

    Выходной формат : Внутренние WAV-операции
    Формат сэмплов : 44.100 Гц; 16 бит; стерео


    TOC извлечённого CD

    Трек | Старт | Длительность | Начальный сектор | Конечный сектор
    ---------------------------------------------------------------------
    1 | 0:00.33 | 3:56.62 | 33 | 17794
    2 | 3:57.20 | 5:06.40 | 17795 | 40784
    3 | 9:03.60 | 4:24.33 | 40785 | 60617
    4 | 13:28.18 | 4:56.62 | 60618 | 82879
    5 | 18:25.05 | 3:59.45 | 82880 | 100849
    6 | 22:24.50 | 4:25.30 | 100850 | 120754
    7 | 26:50.05 | 3:49.63 | 120755 | 137992
    8 | 30:39.68 | 3:05.05 | 137993 | 151872
    9 | 33:44.73 | 3:47.60 | 151873 | 168957


    Характеристики диапазона извлечения и сообщения об ошибках

    Выбранный диапазон

    Имя файла D:\rip-flacmusic.ru\Nazareth - Play 'N' The Game.wav

    Пиковый уровень 100.0 %
    Скорость извлечения 4.8 X
    Качество диапазона 99.9 %
    CRC теста B9EA8776
    CRC копии B9EA8776
    Копирование... OK

    Ошибок не произошло


    AccurateRip: сводка

    Трек 1 : извлечено точно (доверие 3) [5F6F4C9C] (AR v1)
    Трек 2 : извлечено точно (доверие 3) [69BEBE02] (AR v1)
    Трек 3 : извлечено точно (доверие 3) [D7555F61] (AR v1)
    Трек 4 : извлечено точно (доверие 3) [870E8283] (AR v1)
    Трек 5 : извлечено точно (доверие 3) [47FDB7D0] (AR v1)
    Трек 6 : извлечено точно (доверие 3) [9A661235] (AR v1)
    Трек 7 : извлечено точно (доверие 3) [9159D295] (AR v1)
    Трек 8 : извлечено точно (доверие 3) [ADC5DFF5] (AR v1)
    Трек 9 : извлечено точно (доверие 3) [19B0D6A5] (AR v1)

    Все треки извлечены точно

    Конец отчёта

    ==== Контрольная сумма отчёта 4187DAC0BF27972E5C9C2F886C80D216228FF9A4719CC9192D 79B5B76C5DF5F7 ====

    ///////////////////////////////////////////////////////////////////////////////

    -----------------------

    DON'T MODIFY THIS FILE

    -----------------------

    PERFORMER: auCDtect Task Manager, ver. 1.6.0 RC1 build 1.6.0.1
    Copyright (c) 2008-2010 y-soft. All rights reserved
    http://y-soft.org

    ANALYZER: auCDtect: CD records authenticity detector, version 0.8.2
    Copyright (c) 2004 Oleg Berngardt. All rights reserved.
    Copyright (c) 2004 Alexander Djourik. All rights reserved.


    FILE: Nazareth - Play 'N' The Game.flac
    Size: 230048057 Hash: 0B132F6EA6314C499E918130119CD90D Accuracy: -m0
    Conclusion: MPEG 95%
    Signature: 4E80CA312B44D98197D63696D70FF27FE0984E44

    ///////////////////////////////////////////////////////////////////////////////

    foobar2000 1.3 / Dynamic Range Meter 1.1.1
    log date: 2014-03-19 03:44:49

    --------------------------------------------------------------------------------
    Analyzed: Nazareth / Play 'N' The Game
    --------------------------------------------------------------------------------

    DR Peak RMS Duration Track
    --------------------------------------------------------------------------------
    DR13 -1.49 dB -15.84 dB 3:57 01-Somebody To Roll
    DR13 -0.42 dB -16.55 dB 5:07 02-Down Home Girl
    DR12 -4.74 dB -20.26 dB 4:24 03-Flying
    DR14 0.00 dB -15.48 dB 4:57 04-Waiting For the Man
    DR12 0.00 dB -14.10 dB 4:00 05-Born To Love
    DR13 0.00 dB -14.65 dB 4:25 06-I Want To Do Everything For You
    DR15 -0.53 dB -19.15 dB 3:50 07-I Don't Want To Go On Without You
    DR14 0.00 dB -15.84 dB 3:05 08-Wild Honey
    DR14 0.00 dB -14.41 dB 3:48 09-L.A. Girls
    --------------------------------------------------------------------------------

    Number of tracks: 9
    Official DR value: DR13

    Samplerate: 44100 Hz
    Channels: 2
    Bits per sample: 16
    Bitrate: 817 kbps
    Codec: FLAC
    ================================================== ==============================

    /////////////////////////////////////////////////////////////////////////////////

    [свернуть]

    Play ’n’ the Game (рус. Играя в игру) — восьмой студийный альбом шотландской группы Nazareth, вышедший в 1976 году. На обложке диска указано: «Этот альбом целиком посвящается Биллу Фехилли, чьи вера и дух по-прежнему с нами». Билл Фехилли — менеджер группы, погибший незадолго до этого в авиакатастрофе. Play ’n’ the Game, как и предыдущий альбом, прошёл незамеченным в Великобритании, в то время как группа была очень популярна в Канаде, где за все 1970-е Nazareth получили около 50 золотых и платиновых пластинок. Кроме того, Play ’n’ the Game открыл Nazareth дорогу популярности в Южной Америке.


    Скрытый текст (вы должны войти под своим логином или зарегистрироваться и иметь 5 сообщение(ий)):
    У вас нет прав чтобы видеть скрытый текст, содержащийся здесь.


  8. 9 пользователя(ей) сказали cпасибо:

    Coroed (11.11.2018), hohho (12.11.2018), kalach (12.11.2018), Lupus (11.11.2018), Puharik (11.11.2018), Riddler (11.11.2018), vlad56 (Вчера), Yuraved (13.11.2018), Елизавета (Вчера)

  9. #14
    Супер модератор Array Аватар для aheron
    Регистрация
    11.06.2018
    Сообщений
    242
    Сказал(а) спасибо
    2,653
    Поблагодарили 1,347 раз(а)
    в 196 сообщениях
    Онлайн
    4 Дней 8 ч 30 сек
    В среднем
    2 мин 4 сек
    Nazareth - Rampant (1974) [Edition 1997]





    Performer: Nazareth
    Album: Rampant
    Label: Essential/Castle Communications. Made in UK.
    Catalog #: ESMCD 551, GAS0000551ESM
    Style: Hard Rock
    Year: 1974 (Reissue, Remastered 1997)
    Format: FLAC (image + .cue)
    Bitrate: lossless
    Covers: in archive
    Amount of tracks: 11
    Size ZIP: ~ 340 mb

    ••• Tracklist •••

    01. Nazareth - Silver Dollar Forger (Parts 1 & 2) [5:37]
    02. Nazareth - Glad When You're Gone [4:17]
    03. Nazareth - Loved And Lost [5:13]
    04. Nazareth - Shanghai'd In Shanghai [3:43]
    05. Nazareth - Jet Lag [6:43]
    06. Nazareth - Light My Way [4:09]
    07. Nazareth - Sunshine [4:16]
    08. Nazareth - A. Shapes Of Things B. Space Safari [6:22]
    09. Nazareth - Shanghai'd In Shanghai (US version, Bonus Track) [3:42]
    10. Nazareth - Cat's Eye Apple Pie (B-side to Shanghai'd In Shanghai, Bonus Track)) [3:02]
    11. Nazareth - Shapes Of Things (Single Edit, Bonus Track)) [3:20]
    --------------------------
    Total time: [50:24]

    Personnel;
    ====================
    Dan McCafferty - vocals, photography
    Pete Agnew - bass guitar, guitar, background vocals, liner notes
    Manny Charlton - guitars, producer, photography
    Darrell Sweet - drums, background vocals, liner notes, photography

    Additional musicians
    --------------------------
    Vicki Brown, Barry St. John, Liza Strike - background vocals
    Jon Lord - synthesizer, piano on "Glad When You're Gone" and "Shanghai'd In Shanghai"

    Notes:
    ====================
    Rampant was released in the UK in 1974 on B & C Mooncrest, catalogue number: CREST15.

    Recorded in Montreaux, Switzerland, with the Rolling Stones Mobile Unit.
    Remixed at Kingsway Recorders, London.

    Published by Carlin Music Corp., except track 8a and 11, published by Yardbirds Music.

    ℗ 1974 Nazareth (Dunfermline) Ltd
    ℗ 1975 Nazareth (Dunfermline) Ltd (tracks 5, 6)
    ℗ 1972 Nazareth (Dunfermline) Ltd (track 10)

    This compilation:
    ℗ 1997 Castle Communications plc
    © 1997 Castle Communications plc

    Made in England.
    [свернуть]

    ••• Log EAC + Log auCDtect + Dynamic Range Meter + Spectrum •••

    Exact Audio Copy V1.0 beta 3 from 29. August 2011

    Отчёт EAC об извлечении, выполненном 6. марта 2013, 16:38

    Nazareth / Rampant

    Дисковод: Optiarc DVD RW AD-5280S Adapter: 2 ID: 1

    Режим чтения : Достоверность
    Использование точного потока : Да
    Отключение кэша аудио : Да
    Использование указателей C2 : Нет

    Коррекция смещения при чтении : 48
    Способность читать области Lead-in и Lead-out : Нет
    Заполнение пропущенных сэмплов тишиной : Да
    Удаление блоков с тишиной в начале и конце : Нет
    При вычислениях CRC использовались нулевые сэмплы : Да
    Интерфейс : Установленный внешний ASPI-интерфейс

    Выходной формат : Внутренние WAV-операции
    Формат сэмплов : 44.100 Гц; 16 бит; стерео


    TOC извлечённого CD

    Трек | Старт | Длительность | Начальный сектор | Конечный сектор
    ---------------------------------------------------------------------
    1 | 0:00.00 | 5:36.62 | 0 | 25261
    2 | 5:36.62 | 4:17.25 | 25262 | 44561
    3 | 9:54.12 | 5:12.40 | 44562 | 68001
    4 | 15:06.52 | 3:43.20 | 68002 | 84746
    5 | 18:49.72 | 6:43.30 | 84747 | 115001
    6 | 25:33.27 | 4:09.15 | 115002 | 133691
    7 | 29:42.42 | 4:15.50 | 133692 | 152866
    8 | 33:58.17 | 6:21.45 | 152867 | 181486
    9 | 40:19.62 | 3:42.30 | 181487 | 198166
    10 | 44:02.17 | 3:01.68 | 198167 | 211809
    11 | 47:04.10 | 3:20.20 | 211810 | 226829


    Характеристики диапазона извлечения и сообщения об ошибках

    Выбранный диапазон

    Имя файла D:\rip-flacmusic.ru\Nazareth - Rampant.wav

    Пиковый уровень 100.0 %
    Скорость извлечения 3.9 X
    Качество диапазона 100.0 %
    CRC теста CEECB533
    CRC копии CEECB533
    Копирование... OK

    Ошибок не произошло


    AccurateRip: сводка

    Трек 1 : извлечено точно (доверие 7) [6D53D470] (AR v1)
    Трек 2 : извлечено точно (доверие 7) [3FAA931B] (AR v1)
    Трек 3 : извлечено точно (доверие 7) [158F9216] (AR v1)
    Трек 4 : извлечено точно (доверие 7) [0A0F2FAF] (AR v1)
    Трек 5 : извлечено точно (доверие 7) [CFE1D123] (AR v1)
    Трек 6 : извлечено точно (доверие 7) [D62B1977] (AR v1)
    Трек 7 : извлечено точно (доверие 7) [E5E4C33C] (AR v1)
    Трек 8 : извлечено точно (доверие 7) [A849E0D8] (AR v1)
    Трек 9 : извлечено точно (доверие 6) [FCFF79B4] (AR v1)
    Трек 10 : извлечено точно (доверие 6) [4A0C752A] (AR v1)
    Трек 11 : извлечено точно (доверие 6) [B69CEC67] (AR v1)

    Все треки извлечены точно

    Конец отчёта

    ==== Контрольная сумма отчёта 071B9591BF3EBEA596BA97B210E015B8EAE6E95BFBE682359A 1D701DF2AF6506 ====

    /////////////////////////////////////////////////////////////////////////////////

    -----------------------

    DON'T MODIFY THIS FILE

    -----------------------

    PERFORMER: auCDtect Task Manager, ver. 1.6.0 RC1 build 1.6.0.1
    Copyright (c) 2008-2010 y-soft. All rights reserved
    http://y-soft.org

    ANALYZER: auCDtect: CD records authenticity detector, version 0.8.2
    Copyright (c) 2004 Oleg Berngardt. All rights reserved.
    Copyright (c) 2004 Alexander Djourik. All rights reserved.


    FILE: Nazareth - Rampant.flac
    Size: 314451603 Hash: 7D24371DF3104218D65C877D3E4E4CBC Accuracy: -m0
    Conclusion: CDDA 99%
    Signature: D231E8C6E027AA3E4E142EC26F610328E3C08314

    ///////////////////////////////////////////////////////////////////////////

    foobar2000 1.3.1 / Dynamic Range Meter 1.1.1
    log date: 2014-04-11 00:01:16

    --------------------------------------------------------------------------------
    Analyzed: Nazareth / Rampant
    --------------------------------------------------------------------------------

    DR Peak RMS Duration Track
    --------------------------------------------------------------------------------
    DR11 0.00 dB -13.08 dB 5:37 01-Silver Dollar Forger (Parts 1 & 2)
    DR11 0.00 dB -13.54 dB 4:17 02-Glad When You're Gone
    DR13 -0.24 dB -16.97 dB 5:13 03-Loved And Lost
    DR13 0.00 dB -14.16 dB 3:43 04-Shanghai'd In Shanghai
    DR12 -0.87 dB -16.04 dB 6:43 05-Jet Lag
    DR12 -1.82 dB -15.92 dB 4:09 06-Light My Way
    DR13 -3.18 dB -20.03 dB 4:16 07-Sunshine
    DR13 0.00 dB -15.92 dB 6:22 08-A. Shapes Of Things B. Space Safari
    DR12 -0.01 dB -14.03 dB 3:42 09-Shanghai'd In Shanghai (US version, Bonus Track)
    DR14 -0.62 dB -16.29 dB 3:02 10-Cat's Eye Apple Pie (B-side to Shanghai'd In Shanghai, Bonus Track))
    DR13 0.00 dB -14.89 dB 3:20 11-Shapes Of Things (Single Edit, Bonus Track))
    --------------------------------------------------------------------------------

    Number of tracks: 11
    Official DR value: DR12

    Samplerate: 44100 Hz
    Channels: 2
    Bits per sample: 16
    Bitrate: 832 kbps
    Codec: FLAC
    ================================================== ==============================

    //////////////////////////////////////////////////////////////////////////////////////

    [свернуть]

    Rampant (рус. буйный, неистовствующий, необузданный) — пятый студийный альбом шотландской группы Nazareth, вышедший в 1974 году. Это также второй вышедший в 1974 году альбом группы и третий, спродюсированный басистом легендарных Deep рurple Роджером Гловером. Остается только удивляться трудолюбию и потенциалу шотландцев в те годы – выпускать по 2 достаточно сильных альбома в год, да еще и концерты давать. Именно под влиянием Роджера Гловера ребята определились, что их стихия – хард-рок, и выпустили этот классический диск, который стал одним из эталонов стиля. Описывать здесь особо не стоит – это надо слышать. Гитарист Мэнни Чарлтон рулит в этом альбоме, почти как ни в каком другом. Гитара здесь жесткая в подложке и ядовитая в сольных партиях. И вообще, Чарлтон талантливо находит нужные ноты в нужном месте и в нужное время. А вокалист Дэн Маккаферти в свою очередь вытворяет с голосом такие штучки, какие привычно слышать разве что от AC/DC. Не будучи каким-то откровением, диск Rampant тем не менее щедро ублажил в свое время огромную армию фанатов Nazareth и породил один, зато какой, сногсшибательный хит под названием Shanghai'd in Shanghai. Стоит отметить также и медленную гипнотическую Loved аnd lost с неповторимым соло в середине композиции; Sunshine - традиционную балладу с довольно нестандартной концовкой; и, конечно же, кавер-версию песни Shapes оf things группы Yardbirds с включением в нее оригинального инструментала Space safari. Альбом примечателен еще тем, что в двух композициях - Glad when you're gone и Shanghai'd in Shanghai - на клавишных сыграл сам маэстро Джон Лорд из Deep purple.
    Nazareth - Glad When You're Gone



    Скрытый текст (вы должны войти под своим логином или зарегистрироваться и иметь 5 сообщение(ий)):
    У вас нет прав чтобы видеть скрытый текст, содержащийся здесь.

  10. 9 пользователя(ей) сказали cпасибо:

    Coroed (12.11.2018), hohho (14.11.2018), kalach (13.11.2018), Lupus (12.11.2018), Puharik (12.11.2018), Riddler (13.11.2018), vlad56 (Вчера), Yuraved (13.11.2018), Елизавета (Вчера)

  11. #15
    Супер модератор Array Аватар для aheron
    Регистрация
    11.06.2018
    Сообщений
    242
    Сказал(а) спасибо
    2,653
    Поблагодарили 1,347 раз(а)
    в 196 сообщениях
    Онлайн
    4 Дней 8 ч 30 сек
    В среднем
    2 мин 4 сек
    Nazareth - Razamanaz (1973) [Edition 1996]





    Performer: Nazareth
    Album: Razamanaz
    Label: Castle Communications. Made in UK.
    Catalog #: ESMCD 370
    Style: Hard Rock
    Year: 1973 (Edition 1996)
    Format: FLAC (image + .cue)
    Bitrate: lossless
    Covers: in archive
    Amount of tracks: 13
    Size ZIP: ~ 339 mb

    ••• Tracklist •••

    01. Nazareth - Razamanaz [3:52]
    02. Nazareth - Alcatraz [4:24]
    03. Nazareth - Vigilante Man [5:21]
    04. Nazareth - Woke Up This Morning [3:53]
    05. Nazareth - Night Woman [3:29]
    06. Nazareth - Bad, Bad Boy [3:57]
    07. Nazareth - Sold My Soul [4:49]
    08. Nazareth - Too Bad, Too Sad [2:56]
    09. Nazareth - Broken Down Angel [3:45]
    -=Bonus Tracks=-
    10. Nazareth - Hard Living [3:03]
    11. Nazareth - Spinning Top [3:06]
    12. Nazareth - Woke Up This Morning (alternate version) [3:13]
    13. Nazareth - Witchdoctor Woman [4:07]
    --------------------------
    Total time: [49:56]

    Personnel:
    ====================
    Dan McCafferty - lead vocals
    Darrell Sweet - drums, percussion, backing vocals, liner notes
    Pete Agnew - bass guitar, backing vocals
    Manny Charlton - electric and acoustic guitars, slide guitar, banjo, backing vocals
    [свернуть]

    ••• Log EAC + Log auCDtect + Dynamic Range Meter + Spectrum •••

    Exact Audio Copy V1.0 beta 3 from 29. August 2011

    Отчёт EAC об извлечении, выполненном 20. февраля 2013, 11:28

    Nazareth / Razamanaz

    Дисковод: PLEXTOR DVDR PX-L890UE Adapter: 1 ID: 0

    Режим чтения : Достоверность
    Использование точного потока : Да
    Отключение кэша аудио : Да
    Использование указателей C2 : Нет

    Коррекция смещения при чтении : 6
    Способность читать области Lead-in и Lead-out : Нет
    Заполнение пропущенных сэмплов тишиной : Да
    Удаление блоков с тишиной в начале и конце : Нет
    При вычислениях CRC использовались нулевые сэмплы : Да
    Интерфейс : Установленный внешний ASPI-интерфейс

    Выходной формат : Внутренние WAV-операции
    Формат сэмплов : 44.100 Гц; 16 бит; стерео


    TOC извлечённого CD

    Трек | Старт | Длительность | Начальный сектор | Конечный сектор
    ---------------------------------------------------------------------
    1 | 0:00.00 | 3:52.17 | 0 | 17416
    2 | 3:52.17 | 4:23.48 | 17417 | 37189
    3 | 8:15.65 | 5:21.30 | 37190 | 61294
    4 | 13:37.20 | 3:53.15 | 61295 | 78784
    5 | 17:30.35 | 3:29.25 | 78785 | 94484
    6 | 20:59.60 | 3:57.30 | 94485 | 112289
    7 | 24:57.15 | 4:49.30 | 112290 | 133994
    8 | 29:46.45 | 2:55.62 | 133995 | 147181
    9 | 32:42.32 | 3:45.15 | 147182 | 164071
    10 | 36:27.47 | 3:03.05 | 164072 | 177801
    11 | 39:30.52 | 3:06.20 | 177802 | 191771
    12 | 42:36.72 | 3:12.53 | 191772 | 206224
    13 | 45:49.50 | 4:07.12 | 206225 | 224761


    Характеристики диапазона извлечения и сообщения об ошибках

    Выбранный диапазон

    Имя файла D:\rip-flacmusic.ru\Nazareth - Razamanaz.wav

    Пиковый уровень 100.0 %
    Скорость извлечения 5.9 X
    Качество диапазона 100.0 %
    CRC теста 144AFF98
    CRC копии 144AFF98
    Копирование... OK

    Ошибок не произошло


    AccurateRip: сводка

    Трек 1 : извлечено точно (доверие 3) [006CAA07] (AR v1)
    Трек 2 : извлечено точно (доверие 3) [F0D4766C] (AR v1)
    Трек 3 : извлечено точно (доверие 3) [54081330] (AR v1)
    Трек 4 : извлечено точно (доверие 3) [44BAB9A5] (AR v1)
    Трек 5 : извлечено точно (доверие 3) [7B4A3A42] (AR v1)
    Трек 6 : извлечено точно (доверие 3) [03CD62DF] (AR v1)
    Трек 7 : извлечено точно (доверие 3) [8F099E7D] (AR v1)
    Трек 8 : извлечено точно (доверие 3) [6DC212A8] (AR v1)
    Трек 9 : извлечено точно (доверие 3) [B6EA4DC5] (AR v1)
    Трек 10 : извлечено точно (доверие 3) [3E64BA9C] (AR v1)
    Трек 11 : извлечено точно (доверие 3) [4E0038C6] (AR v1)
    Трек 12 : извлечено точно (доверие 3) [5CD602CE] (AR v1)
    Трек 13 : извлечено точно (доверие 3) [6D1B2B1D] (AR v1)

    Все треки извлечены точно

    Конец отчёта

    ==== Контрольная сумма отчёта 60AD4F4DFF3810AF8C113BD569E734A13FE4B8C4552F9DCB03 566C7A2F7AF86C ====

    /////////////////////////////////////////////////////////////////////////////////////

    -----------------------

    DON'T MODIFY THIS FILE

    -----------------------

    PERFORMER: auCDtect Task Manager, ver. 1.6.0 RC1 build 1.6.0.1
    Copyright (c) 2008-2010 y-soft. All rights reserved
    http://y-soft.org

    ANALYZER: auCDtect: CD records authenticity detector, version 0.8.2
    Copyright (c) 2004 Oleg Berngardt. All rights reserved.
    Copyright (c) 2004 Alexander Djourik. All rights reserved.


    FILE: Nazareth - Razamanaz.flac
    Size: 313408744 Hash: 1D5DC5DD73707403F57E1C3034886AD1 Accuracy: -m0
    Conclusion: CDDA 100%
    Signature: 34DC479D18485DE3B989936AD740DA6D38C5C367

    /////////////////////////////////////////////////////////////////////////////////

    foobar2000 1.3 / Dynamic Range Meter 1.1.1
    log date: 2014-04-01 18:30:41

    --------------------------------------------------------------------------------
    Analyzed: Nazareth / Razamanaz
    --------------------------------------------------------------------------------

    DR Peak RMS Duration Track
    --------------------------------------------------------------------------------
    DR12 -0.58 dB -14.03 dB 3:52 01-Razamanaz
    DR13 -0.58 dB -15.03 dB 4:24 02-Alcatraz
    DR12 -1.00 dB -17.98 dB 5:21 03-Vigilante Man
    DR12 0.00 dB -13.87 dB 3:53 04-Woke Up This Morning
    DR12 0.00 dB -13.87 dB 3:29 05-Night Woman
    DR12 0.00 dB -14.42 dB 3:57 06-Bad, Bad Boy
    DR12 -0.05 dB -14.56 dB 4:49 07-Sold My Soul
    DR11 -1.14 dB -13.26 dB 2:56 08-Too Bad, Too Sad
    DR13 0.00 dB -14.42 dB 3:45 09-Broken Down Angel
    DR13 0.00 dB -13.90 dB 3:03 10-Hard Living
    DR14 -0.30 dB -15.81 dB 3:06 11-Spinning Top
    DR12 -0.25 dB -15.04 dB 3:13 12-Woke Up This Morning (alternate version)
    DR11 -2.29 dB -15.21 dB 4:07 13-Witchdoctor Woman
    --------------------------------------------------------------------------------

    Number of tracks: 13
    Official DR value: DR12

    Samplerate: 44100 Hz
    Channels: 2
    Bits per sample: 16
    Bitrate: 837 kbps
    Codec: FLAC
    ================================================== ==============================

    ///////////////////////////////////////////////////////////////////////////////

    [свернуть]

    Razamanaz — третий студийный альбом шотландской хард-рок-группы Nazareth, вышедший в 1973 году.


    Nazareth - Bad, Bad Boy



    Скрытый текст (вы должны войти под своим логином или зарегистрироваться и иметь 5 сообщение(ий)):
    У вас нет прав чтобы видеть скрытый текст, содержащийся здесь.

  12. 9 пользователя(ей) сказали cпасибо:

    Coroed (13.11.2018), hohho (14.11.2018), kalach (13.11.2018), Lupus (13.11.2018), Puharik (13.11.2018), Riddler (13.11.2018), vlad56 (Вчера), Yuraved (13.11.2018), Елизавета (Вчера)

  13. #16
    Супер модератор Array Аватар для aheron
    Регистрация
    11.06.2018
    Сообщений
    242
    Сказал(а) спасибо
    2,653
    Поблагодарили 1,347 раз(а)
    в 196 сообщениях
    Онлайн
    4 Дней 8 ч 30 сек
    В среднем
    2 мин 4 сек
    Nazareth - Rock 'N' Roll Telephone [2CD] (2014) [Deluxe Edition]





    Performer: Nazareth
    Album: Rock 'N' Roll Telephone
    Label: Union Square Music. Made in UK.
    Catalog #: USMFLDCD001
    Style: Hard Rock, Classic Rock
    Year: 2014 (2xCD, Deluxe Edition)
    Format: FLAC (image + .cue)
    Bitrate: lossless
    Covers: in archive
    Amount of tracks: 18
    Size ZIP: ~ 618 mb

    ••• Tracklist •••

    CD1
    ----------------------------
    01. Nazareth - Boom Bang Bang [3:17]
    02. Nazareth - One Set Of Bones [3:27]
    03. Nazareth - Back 2B4 [4:52]
    04. Nazareth - Winter Sunlight [3:29]
    05. Nazareth - Rock 'N' Roll Telephone [5:45]
    06. Nazareth - Punch A Hole In The Sky [3:49]
    07. Nazareth - Long Long Time [4:18]
    08. Nazareth - The Right Time [4:50]
    09. Nazareth - Not Today [3:26]
    10. Nazareth - Speakeasy [3:18]
    11. Nazareth - God Of The Mountain [3:42]
    ----------------------------
    Total time: [44:15]

    CD2 Bonus Tracks
    ----------------------------
    01. Nazareth - Just A Ride [2:50]
    02. Nazareth - Wanna Feel Good? [3:49]
    03. Nazareth - Big Boy (Live) [5:39]
    04. Nazareth - Kentucky Fried Blues (Live) [4:32]
    05. Nazareth - Sunshine (Live) [3:42]
    06. Nazareth - Expect No Mercy (Live) [5:07]
    07. Nazareth - God Save The South (Live) [7:00]
    ----------------------------
    Total time: [32:37]

    Personnel:
    ==================
    Dan McCafferty – vocals
    Jimmy Murrison – guitars
    Pete Agnew – bass guitar
    Lee Agnew – drums

    Notes:
    ==================
    Released in a digipak.
    Back cover states made in the EU
    Big Boy 7 Expect No Mercy recorded Live in Somerset,England 2008
    Kentucky Fried Blues recorded Live in Milton Keynes, England 2006
    Sunshine & God Save The South recorded Live in Barrrie, Ontario, Canada 2000
    [свернуть]

    ••• Log EAC + Log auCDtect + Dynamic Range Meter + Spectrum •••

    Exact Audio Copy V1.0 beta 3 from 29. August 2011

    EAC extraction logfile from 6. June 2014, 21:35

    Nazareth / Rock 'n' Roll Telephone

    Used drive : HL-DT-STDVDRAM GU40N Adapter: 0 ID: 1

    Read mode : Secure
    Utilize accurate stream : Yes
    Defeat audio cache : Yes
    Make use of C2 pointers : No

    Read offset correction : 103
    Overread into Lead-In and Lead-Out : No
    Fill up missing offset samples with silence : Yes
    Delete leading and trailing silent blocks : No
    Null samples used in CRC calculations : Yes
    Used interface : Installed external ASPI interface

    Used output format : User Defined Encoder
    Selected bitrate : 128 kBit/s
    Quality : High
    Add ID3 tag : No
    Command line compressor : C:\Program Files (x86)\AudioConverter\AudioConverter.exe
    Additional command line options : -V -8 -T "Date=%year%" -T "Genre=%genre%" %source%


    TOC of the extracted CD

    Track | Start | Length | Start sector | End sector
    ---------------------------------------------------------
    1 | 0:00.00 | 3:17.01 | 0 | 14775
    2 | 3:17.01 | 3:27.10 | 14776 | 30310
    3 | 6:44.11 | 4:52.11 | 30311 | 52221
    4 | 11:36.22 | 3:29.27 | 52222 | 67923
    5 | 15:05.49 | 5:45.28 | 67924 | 93826
    6 | 20:51.02 | 3:49.13 | 93827 | 111014
    7 | 24:40.15 | 4:18.12 | 111015 | 130376
    8 | 28:58.27 | 4:50.34 | 130377 | 152160
    9 | 33:48.61 | 3:26.06 | 152161 | 167616
    10 | 37:14.67 | 3:17.57 | 167617 | 182448
    11 | 40:32.49 | 3:42.32 | 182449 | 199130


    Range status and errors

    Selected range

    Filename C:\Users\workutagin\Desktop\Neuer Ordner\Nazareth - Rock 'n' Roll Telephone.wav

    Peak level 95.1 %
    Extraction speed 1.9 X
    Range quality 100.0 %
    Test CRC 05B360AD
    Copy CRC 05B360AD
    Copy OK

    No errors occurred


    AccurateRip summary

    Track 1 accurately ripped (confidence 1) [90271146] (AR v2)
    Track 2 accurately ripped (confidence 1) [885B1580] (AR v2)
    Track 3 accurately ripped (confidence 1) [77066597] (AR v2)
    Track 4 accurately ripped (confidence 1) [E190E5C7] (AR v2)
    Track 5 accurately ripped (confidence 1) [89447375] (AR v2)
    Track 6 accurately ripped (confidence 1) [6E5D321D] (AR v2)
    Track 7 accurately ripped (confidence 1) [C4ADF025] (AR v2)
    Track 8 accurately ripped (confidence 1) [DD81C138] (AR v2)
    Track 9 accurately ripped (confidence 1) [E1409BF6] (AR v2)
    Track 10 accurately ripped (confidence 1) [5F79FF0B] (AR v2)
    Track 11 accurately ripped (confidence 1) [9C8091DB] (AR v2)

    All tracks accurately ripped

    End of status report

    ==== Log checksum 4510216B38EA1511197A4511FD41448D5B72BB986015FBFE3D A701F5E7F4EAE9 ====

    //////////////////////////////////////////////////////////////////////////////////////////////

    Exact Audio Copy V1.0 beta 3 from 29. August 2011

    EAC extraction logfile from 7. June 2014, 1:08

    Nazareth / Rock 'n' Roll Telephone

    Used drive : HL-DT-STDVDRAM GU40N Adapter: 0 ID: 1

    Read mode : Secure
    Utilize accurate stream : Yes
    Defeat audio cache : Yes
    Make use of C2 pointers : No

    Read offset correction : 103
    Overread into Lead-In and Lead-Out : No
    Fill up missing offset samples with silence : Yes
    Delete leading and trailing silent blocks : No
    Null samples used in CRC calculations : Yes
    Used interface : Installed external ASPI interface

    Used output format : User Defined Encoder
    Selected bitrate : 128 kBit/s
    Quality : High
    Add ID3 tag : No
    Command line compressor : C:\Program Files (x86)\AudioConverter\AudioConverter.exe
    Additional command line options : -V -8 -T "Date=%year%" -T "Genre=%genre%" %source%


    TOC of the extracted CD

    Track | Start | Length | Start sector | End sector
    ---------------------------------------------------------
    1 | 0:00.00 | 2:49.57 | 0 | 12731
    2 | 2:49.57 | 3:49.21 | 12732 | 29927
    3 | 6:39.03 | 5:38.58 | 29928 | 55335
    4 | 12:17.61 | 4:31.73 | 55336 | 75733
    5 | 16:49.59 | 3:41.38 | 75734 | 92346
    6 | 20:31.22 | 5:06.69 | 92347 | 115365
    7 | 25:38.16 | 6:59.42 | 115366 | 146832


    Range status and errors

    Selected range

    Filename C:\Users\workutagin\Desktop\Nazareth - Rock 'n' Roll Telephone (Deluxe Edition) 2014 CD2\Nazareth - Rock 'n' Roll Telephone.wav

    Peak level 99.2 %
    Extraction speed 1.8 X
    Range quality 100.0 %
    Test CRC EA065C6B
    Copy CRC EA065C6B
    Copy OK

    No errors occurred


    AccurateRip summary

    Track 1 accurately ripped (confidence 1) [B1655E8F] (AR v2)
    Track 2 accurately ripped (confidence 1) [8F848BD7] (AR v2)
    Track 3 accurately ripped (confidence 1) [F2997C3F] (AR v2)
    Track 4 accurately ripped (confidence 1) [D551254F] (AR v2)
    Track 5 accurately ripped (confidence 1) [A5656A0A] (AR v2)
    Track 6 accurately ripped (confidence 1) [2FB8AAF5] (AR v2)
    Track 7 accurately ripped (confidence 1) [8E1F4B35] (AR v2)

    All tracks accurately ripped

    End of status report

    ==== Log checksum 62C14F93E2525F8282D270E4046DA7E9501128D729FAEBBD2D 88E841CE8237AF ====

    ++++++++++++++++++++++++++++++++++++++++++++++++++ ++++

    -----------------------

    DON'T MODIFY THIS FILE

    -----------------------

    PERFORMER: auCDtect Task Manager, ver. 1.6.0 RC1 build 1.6.0.1
    Copyright (c) 2008-2010 y-soft. All rights reserved
    http://y-soft.org

    ANALYZER: auCDtect: CD records authenticity detector, version 0.8.2
    Copyright (c) 2004 Oleg Berngardt. All rights reserved.
    Copyright (c) 2004 Alexander Djourik. All rights reserved.


    FILE: Nazareth - Rock 'n' Roll Telephone.flac
    Size: 325064510 Hash: AA430A66DE6C9803650456927FF3E4F6 Accuracy: -m0
    Conclusion: CDDA 100%
    Signature: 42E37E2A7BD2AE53E36E172A8130E8332C010420

    ////////////////////////////////////////////////////////////////////////

    -----------------------

    DON'T MODIFY THIS FILE

    -----------------------

    PERFORMER: auCDtect Task Manager, ver. 1.6.0 RC1 build 1.6.0.1
    Copyright (c) 2008-2010 y-soft. All rights reserved
    http://y-soft.org

    ANALYZER: auCDtect: CD records authenticity detector, version 0.8.2
    Copyright (c) 2004 Oleg Berngardt. All rights reserved.
    Copyright (c) 2004 Alexander Djourik. All rights reserved.


    FILE: Nazareth - Rock 'n' Roll Telephone.flac
    Size: 220726634 Hash: EB7655DA38D586C54CC861C763FDFDB3 Accuracy: -m0
    Conclusion: MPEG 100%
    Signature: 1E0A0A735977D566B20076B41AED81D35E3A5A6B

    ++++++++++++++++++++++++++++++++++++++++++++++++++ +++

    foobar2000 1.3.2 / Dynamic Range Meter 1.1.1
    log date: 2014-06-08 02:29:38

    --------------------------------------------------------------------------------
    Analyzed: Nazareth / Rock 'n' Roll Telephone
    --------------------------------------------------------------------------------

    DR Peak RMS Duration Track
    --------------------------------------------------------------------------------
    DR5 -0.63 dB -7.59 dB 3:17 01-Boom Bang Bang
    DR5 -0.56 dB -6.54 dB 3:27 02-One Set Of Bones
    DR5 -0.72 dB -6.88 dB 4:52 03-Back 2B4
    DR6 -0.74 dB -8.30 dB 3:29 04-Winter Sunlight
    DR5 -1.22 dB -7.77 dB 5:45 05-Rock 'N' Roll Telephone
    DR5 -0.67 dB -6.98 dB 3:49 06-Punch A Hole In The Sky
    DR5 -0.82 dB -8.03 dB 4:18 07-Long Long Time
    DR8 -0.87 dB -9.85 dB 4:50 08-The Right Time
    DR4 -0.78 dB -5.76 dB 3:26 09-Not Today
    DR5 -0.43 dB -6.87 dB 3:18 10-Speakeasy
    DR4 -1.05 dB -6.38 dB 3:42 11-God Of The Mountain
    --------------------------------------------------------------------------------

    Number of tracks: 11
    Official DR value: DR5

    Samplerate: 44100 Hz
    Channels: 2
    Bits per sample: 16
    Bitrate: 979 kbps
    Codec: FLAC
    ================================================== ==============================

    ////////////////////////////////////////////////////////////////////////////////

    foobar2000 1.3.2 / Dynamic Range Meter 1.1.1
    log date: 2014-06-08 02:29:58

    --------------------------------------------------------------------------------
    Analyzed: Nazareth / Rock 'n' Roll Telephone
    --------------------------------------------------------------------------------

    DR Peak RMS Duration Track
    --------------------------------------------------------------------------------
    DR6 -0.80 dB -7.44 dB 2:50 01-Just A Ride
    DR6 -0.06 dB -7.41 dB 3:49 02-Wanna Feel Good?
    DR5 -0.09 dB -6.51 dB 5:39 03-Big Boy (Live)
    DR7 -0.08 dB -7.87 dB 4:32 04-Kentucky Fried Blues (Live)
    DR5 -0.09 dB -7.95 dB 3:42 05-Sunshine (Live)
    DR5 -0.09 dB -5.52 dB 5:07 06-Expect No Mercy (Live)
    DR5 -0.09 dB -7.87 dB 7:00 07-God Save The South (Live)
    --------------------------------------------------------------------------------

    Number of tracks: 7
    Official DR value: DR6

    Samplerate: 44100 Hz
    Channels: 2
    Bits per sample: 16
    Bitrate: 902 kbps
    Codec: FLAC
    ================================================== ==============================

    ++++++++++++++++++++++++++++++++++++++++++++++++++ ++++++

    [свернуть]

    Rock ‘n’ Roll Telephone — 23-й студийный альбом шотландской рок-группы Nazareth. Вышел 3 июня 2014 года.
    В 2013 году группа официально объявила, что вокалист Дэн Маккаферти, который является одним из основателей группы, вынужден покинуть группу из-за проблем со здоровьем. Их новым вокалистом стал шотландец Линтон Осборн. Маккаферти тем не менее принял участие в записи альбома.
    Nazareth - Boom Bang Bang



    Скрытый текст (вы должны войти под своим логином или зарегистрироваться и иметь 5 сообщение(ий)):
    У вас нет прав чтобы видеть скрытый текст, содержащийся здесь.

  14. 8 пользователя(ей) сказали cпасибо:

    hohho (14.11.2018), kalach (14.11.2018), Lupus (14.11.2018), Puharik (14.11.2018), Riddler (14.11.2018), vlad56 (Вчера), Yuraved (Вчера), Елизавета (Вчера)

  15. #17
    Супер модератор Array Аватар для aheron
    Регистрация
    11.06.2018
    Сообщений
    242
    Сказал(а) спасибо
    2,653
    Поблагодарили 1,347 раз(а)
    в 196 сообщениях
    Онлайн
    4 Дней 8 ч 30 сек
    В среднем
    2 мин 4 сек
    Nazareth - Snakes 'N' Ladders (1989) [Edition 2000]



    Performer: Nazareth
    Album: Snakes 'N' Ladders
    Label: Vertigo. Made in Germany.
    Catalog #: 838 426-2
    Style: Hard Rock
    Year: 1989 (2000)
    Format: FLAC (image + .cue)
    Bitrate: lossless
    Covers: in archive
    Amount of tracks: 11
    Size ZIP: ~ 315 mb

    ••• Tracklist •••

    01. Nazareth - We Are Animals [4:06]
    02. Nazareth - Lady Luck [4:15]
    03. Nazareth - Hang On To A Dream [4:37]
    04. Nazareth - Piece Of My Heart [4:31]
    05. Nazareth - Trouble [5:00]
    06. Nazareth - The Key [3:20]
    07. Nazareth - Back To School [4:57]
    08. Nazareth - Girls [3:45]
    09. Nazareth - Donna - Get Off That Crack [4:25]
    10. Nazareth - See You, See Me [5:06]
    11. Nazareth - Helpless [5:00]
    --------------------------
    Total time: [49:02]

    Personnel:
    =================
    Dan McCafferty - vocals
    Manny Charlton - guitars, keyboards & computer programming
    Pete Agnew - bass guitar
    Darrell Sweet - drums
    [свернуть]

    ••• Log EAC + Log auCDtect + Dynamic Range Meter + Spectrum •••

    Exact Audio Copy V1.0 beta 3 from 29. August 2011

    Отчёт EAC об извлечении, выполненном 7. марта 2013, 13:30

    Nazareth / Snakes 'N' Ladders

    Дисковод: Optiarc DVD RW AD-5280S Adapter: 2 ID: 1

    Режим чтения : Достоверность
    Использование точного потока : Да
    Отключение кэша аудио : Да
    Использование указателей C2 : Нет

    Коррекция смещения при чтении : 48
    Способность читать области Lead-in и Lead-out : Нет
    Заполнение пропущенных сэмплов тишиной : Да
    Удаление блоков с тишиной в начале и конце : Нет
    При вычислениях CRC использовались нулевые сэмплы : Да
    Интерфейс : Установленный внешний ASPI-интерфейс

    Выходной формат : Внутренние WAV-операции
    Формат сэмплов : 44.100 Гц; 16 бит; стерео


    TOC извлечённого CD

    Трек | Старт | Длительность | Начальный сектор | Конечный сектор
    ---------------------------------------------------------------------
    1 | 0:00.32 | 4:06.18 | 32 | 18499
    2 | 4:06.50 | 4:15.00 | 18500 | 37624
    3 | 8:21.50 | 4:37.00 | 37625 | 58399
    4 | 12:58.50 | 4:30.72 | 58400 | 78721
    5 | 17:29.47 | 5:00.03 | 78722 | 101224
    6 | 22:29.50 | 3:19.72 | 101225 | 116221
    7 | 25:49.47 | 4:57.00 | 116222 | 138496
    8 | 30:46.47 | 3:45.03 | 138497 | 155374
    9 | 34:31.50 | 4:25.00 | 155375 | 175249
    10 | 38:56.50 | 5:06.07 | 175250 | 198206
    11 | 44:02.57 | 4:59.63 | 198207 | 220694


    Характеристики диапазона извлечения и сообщения об ошибках

    Выбранный диапазон

    Имя файла D:\rip-flacmusic.ru\Nazareth - Snakes 'N' Ladders.wav

    Пиковый уровень 100.0 %
    Скорость извлечения 3.8 X
    Качество диапазона 100.0 %
    CRC теста A7DF5CC6
    CRC копии A7DF5CC6
    Копирование... OK

    Ошибок не произошло


    AccurateRip: сводка

    Трек 1 точность не определена (достоверность 16) [E99C0D19], AccurateRip вернул [8C126D01] (AR v2)
    Трек 2 точность не определена (достоверность 17) [E8DA36A3], AccurateRip вернул [353710A0] (AR v2)
    Трек 3 точность не определена (достоверность 17) [2279E977], AccurateRip вернул [82003D75] (AR v2)
    Трек 4 точность не определена (достоверность 17) [216C715E], AccurateRip вернул [288F45D2] (AR v2)
    Трек 5 точность не определена (достоверность 17) [69090F9A], AccurateRip вернул [671D165C] (AR v2)
    Трек 6 точность не определена (достоверность 17) [131FB064], AccurateRip вернул [7FFD502C] (AR v2)
    Трек 7 точность не определена (достоверность 17) [7246C89C], AccurateRip вернул [DD1CD0DE] (AR v2)
    Трек 8 точность не определена (достоверность 17) [B0C7C5A5], AccurateRip вернул [CB390A08] (AR v2)
    Трек 9 точность не определена (достоверность 17) [0DF6AFDB], AccurateRip вернул [024FDCBE] (AR v2)
    Трек 10 точность не определена (достоверность 17) [5F3B08EB], AccurateRip вернул [231C128B] (AR v2)
    Трек 11 точность не определена (достоверность 16) [83471DB3], AccurateRip вернул [B6438164] (AR v2)

    Ни один трек не прошёл проверки на точность
    В вашей базе может быть иной вариант штамповки диска

    Конец отчёта

    ==== Контрольная сумма отчёта 36A70EFFEBE7B65E2828BFB729DB8892501826A73F04B01C60 8B6E42D40740A9 ====

    ////////////////////////////////////////////////////////////////////////////

    -----------------------

    DON'T MODIFY THIS FILE

    -----------------------

    PERFORMER: auCDtect Task Manager, ver. 1.6.0 RC1 build 1.6.0.1
    Copyright (c) 2008-2010 y-soft. All rights reserved
    http://y-soft.org

    ANALYZER: auCDtect: CD records authenticity detector, version 0.8.2
    Copyright (c) 2004 Oleg Berngardt. All rights reserved.
    Copyright (c) 2004 Alexander Djourik. All rights reserved.


    FILE: Nazareth - Snakes 'N' Ladders.flac
    Size: 307733470 Hash: 5758DA41127EDCDD7B7862DA13DBA3E3 Accuracy: -m0
    Conclusion: CDDA 100%
    Signature: 1D509F1402B8897A3AAF370B690422F9DFD9406E

    ////////////////////////////////////////////////////////////////////////////////

    foobar2000 1.3 / Dynamic Range Meter 1.1.1
    log date: 2014-03-19 20:19:41

    --------------------------------------------------------------------------------
    Analyzed: Nazareth / Snakes 'N' Ladders
    --------------------------------------------------------------------------------

    DR Peak RMS Duration Track
    --------------------------------------------------------------------------------
    DR13 -0.12 dB -15.39 dB 4:06 01-We Are Animals
    DR12 0.00 dB -15.16 dB 4:15 02-Lady Luck
    DR13 -1.33 dB -17.90 dB 4:37 03-Hang On To A Dream
    DR12 -0.41 dB -15.63 dB 4:31 04-Piece Of My Heart
    DR12 0.00 dB -14.54 dB 5:00 05-Trouble
    DR13 0.00 dB -16.02 dB 3:20 06-The Key
    DR13 0.00 dB -16.18 dB 4:57 07-Back To School
    DR12 0.00 dB -13.75 dB 3:45 08-Girls
    DR12 0.00 dB -14.12 dB 4:25 09-Donna - Get Off That Crack
    DR12 0.00 dB -14.59 dB 5:06 10-See You, See Me
    DR13 -1.57 dB -18.33 dB 5:00 11-Helpless
    --------------------------------------------------------------------------------

    Number of tracks: 11
    Official DR value: DR12

    Samplerate: 44100 Hz
    Channels: 2
    Bits per sample: 16
    Bitrate: 837 kbps
    Codec: FLAC
    ================================================== ==============================

    [свернуть]

    Snakes ’n’ Ladders — семнадцатый студийный альбом шотландской группы Nazareth. Выпущен в 1989 году лейблом Vertigo. Это был последний альбом, записанный с участием Мэнни Чарлтона, который покинул группу в 1990 году.


    Nazareth - We Are Animals



    Скрытый текст (вы должны войти под своим логином или зарегистрироваться и иметь 5 сообщение(ий)):
    У вас нет прав чтобы видеть скрытый текст, содержащийся здесь.

  16. 6 пользователя(ей) сказали cпасибо:

    Coroed (Вчера), hohho (Вчера), Lupus (Вчера), Puharik (Вчера), Riddler (Вчера), Елизавета (Вчера)

Страница 2 из 2 ПерваяПервая 12

Информация о теме

Пользователи, просматривающие эту тему

Эту тему просматривают: 1 (пользователей: 0 , гостей: 1)

Похожие темы

  1. Nazareth
    от Air в разделе Рок
    Ответов: 0
    Последнее сообщение: 01.04.2012, 10:50

Социальные закладки

Социальные закладки

Ваши права

  • Вы не можете создавать новые темы
  • Вы не можете отвечать в темах
  • Вы не можете прикреплять вложения
  • Вы не можете редактировать свои сообщения
  •