Страница 2 из 2 ПерваяПервая 12
Показано с 11 по 13 из 13

Тема: Belinda Carlisle

  1. #1
    Бывалый Array Аватар для sergy
    Регистрация
    14.11.2018
    Адрес
    Земля
    Сообщений
    495
    Сказал(а) спасибо
    3,157
    Поблагодарили 2,269 раз(а)
    в 460 сообщениях
    Онлайн
    4 Дней 10 ч 28 мин
    В среднем
    1 мин 56 сек

    Thumbs up Belinda Carlisle






    Белинда Джо Карлайл (Belinda Joe Carlisle) родилась 17 августа 1958 года в Голливуде, в многодетной семье Уолта и Джоанны Карлайл, вырастивших семерых детей. Отец работал плотником, мать — швеей. Платья обычно доставались Белинде по наследству от старших сестёр, а куклами приходилось делиться с младшими. Но не это было самым печальным. Жизнь родителей не сложилась, они развелись, и мать вышла замуж во второй раз за человека жёсткого и бескомпромиссного. Отношения Белинды с отчимом носили характер холодной войны, и она начала бунтовать. Бунт выражался весьма своеобразно. Белинда стала первой девушкой Калифорнии, которая играла в мальчишеской баскетбольной команде. Она любила гонять в футбол, и мало кто из мальчишек мог ей противостоять на поле. Даже из драк, которые она любила затевать с товарищами по команде, Белинда нередко выходила победителем. Постоянные конфликты с отчимом едва не довели её мать до нервного срыва. Кроме домашнего неуюта, Белинде приходилось бороться и с лишним весом. И тут характер взял своё: в детстве толстушка, в старших классах она добилась того, что её приняли в группу поддержки, разогревавшую публику перед матчами. В 1976 году, получив аттестат зрелости, Белинда тут же упаковала чемоданы и ушла из дома. Её целью была независимость, а в перспективе — успешная карьера и слава. В 1977 году на панковской сцене в Лос-Анджелесе появилось новое лицо.

  2. 7 пользователя(ей) сказали cпасибо:

    aheron (19.11.2018), Lupus (19.11.2018), Puharik (17.08.2019), Riddler (24.11.2018), vlad56 (03.08.2019), Yuraved (20.11.2018), Старец (19.08.2019)

  3. #11
    Супер модератор Array Аватар для aheron
    Регистрация
    11.06.2018
    Сообщений
    570
    Сказал(а) спасибо
    4,348
    Поблагодарили 3,288 раз(а)
    в 527 сообщениях
    Онлайн
    1 Нед 4 Дней 6 ч 41 мин 51 сек
    В среднем
    4 мин 56 сек
    Belinda Carlisle - A Place On Earth (The Greatest Hits) [2CD] (1999)





    Performer: Belinda Carlisle
    Album: A Place On Earth (The Greatest Hits)
    Label: Virgin Records Ltd.. Made in the EU.
    Catalog #: CDVX 2901, 7243 8 48470 2 9
    Style: Pop Rock
    Year: 1999 (2xCD, Compilation, Limited Edition)
    Format: FLAC (image + .cue)
    Bitrate: lossless
    Covers: in archive
    Amount of tracks: 18 + 10
    Size ZIP: ~ 1,0 gb

    ••• Tracklist •••

    CD1
    ---------------------
    01. Belinda Carlisle - Heaven Is A Place On Earth [4:08]
    02. Belinda Carlisle - I Get Weak [4:15]
    03. Belinda Carlisle - Circle In The Sand [3:42]
    04. Belinda Carlisle - Leave A Light On [4:16]
    05. Belinda Carlisle - La Luna [4:13]
    06. Belinda Carlisle - (We Want) The Same Thing [4:18]
    07. Belinda Carlisle - Summer Rain [4:12]
    08. Belinda Carlisle - Live Your Life Be Free [4:24]
    09. Belinda Carlisle - Do You Feel Like I Feel? [4:15]
    10. Belinda Carlisle - Little Black Book [4:12]
    11. Belinda Carlisle - Big Scary Animal [4:16]
    12. Belinda Carlisle - In Too Deep [4:01]
    13. Belinda Carlisle - California [2:58]
    14. Belinda Carlisle - Always Breaking My Heart [3:06]
    15. Belinda Carlisle - Love In The Key Of C [3:52]
    16. Belinda Carlisle - Feels Like I've Known You Forever [3:49]
    17. Belinda Carlisle - A Prayer For Everyone [4:22]
    18. Belinda Carlisle - All God's Children [3:47]
    ------------------------------------
    Total time: [1:12:07]

    CD2 - Bonus CD
    ---------------------------
    01. Belinda Carlisle - Heaven Is A Place On Earth (Heavenly Version) [5:59]
    02. Belinda Carlisle - I Get Weak (12' Version) [7:33]
    03. Belinda Carlisle - Circle In The Sand (Beach Party Mix) [7:53]
    04. Belinda Carlisle - World Without You (Extended Worldwide Mix) [8:28]
    05. Belinda Carlisle - (We Want) The Same Thing (Summer Remix) [5:11]
    06. Belinda Carlisle - Summer Rain (Justin Strauss Mix) [8:05]
    07. Belinda Carlisle - Live Your Life Be Free (Club Mix) [5:33]
    08. Belinda Carlisle - Only A Dream [3:12]
    09. Belinda Carlisle - The Air You Breathe [4:30]
    10. Belinda Carlisle - Little Black Book (Little Black Mix) [5:16]
    ----------------------------------------
    Total time: [1:01:41]

    Notes:
    ==============
    This Compilation ℗ & © 1999 Virgin Records Limited
    All rights reserved. © 1999 Virgin Records Limited

    Printed in the EU.
    [свернуть]

    ••• Log EAC + Log auCDtect + Dynamic Range Meter + Spectrum •••

    Exact Audio Copy V0.99 prebeta 4 from 23. January 2008

    EAC extraction logfile from 1. April 2009, 14:17

    Belinda Carlisle / A Place On Earth - The Greatest Hits

    Used drive : ASUS DRW-1608P Adapter: 2 ID: 0

    Read mode : Secure
    Utilize accurate stream : Yes
    Defeat audio cache : Yes
    Make use of C2 pointers : No

    Read offset correction : 48
    Overread into Lead-In and Lead-Out : No
    Fill up missing offset samples with silence : Yes
    Delete leading and trailing silent blocks : No
    Null samples used in CRC calculations : Yes
    Used interface : Native Win32 interface for Win NT & 2000

    Used output format : User Defined Encoder
    Selected bitrate : 1024 kBit/s
    Quality : High
    Add ID3 tag : Yes
    Command line compressor : C:\Program Files (x86)\FLAC\flac.exe
    Additional command line options : -5 -V -T "ARTIST=%a" -T "TITLE=%t" -T "ALBUM=%g" -T "DATE=%y" -T "TRACKNUMBER=%n" -T "GENRE=%m" -T "COMMENT=EAC FLAC -5" %s


    TOC of the extracted CD

    Track | Start | Length | Start sector | End sector
    ---------------------------------------------------------
    1 | 0:00.00 | 4:08.25 | 0 | 18624
    2 | 4:08.25 | 4:15.30 | 18625 | 37779
    3 | 8:23.55 | 3:42.02 | 37780 | 54431
    4 | 12:05.57 | 4:16.03 | 54432 | 73634
    5 | 16:21.60 | 4:12.60 | 73635 | 92594
    6 | 20:34.45 | 4:17.67 | 92595 | 111936
    7 | 24:52.37 | 4:11.55 | 111937 | 130816
    8 | 29:04.17 | 4:23.53 | 130817 | 150594
    9 | 33:27.70 | 4:15.37 | 150595 | 169756
    10 | 37:43.32 | 4:12.35 | 169757 | 188691
    11 | 41:55.67 | 4:15.55 | 188692 | 207871
    12 | 46:11.47 | 4:00.60 | 207872 | 225931
    13 | 50:12.32 | 2:58.30 | 225932 | 239311
    14 | 53:10.62 | 3:06.03 | 239312 | 253264
    15 | 56:16.65 | 3:51.52 | 253265 | 270641
    16 | 60:08.42 | 3:49.20 | 270642 | 287836
    17 | 63:57.62 | 4:21.48 | 287837 | 307459
    18 | 68:19.35 | 3:47.37 | 307460 | 324521


    Range status and errors

    Selected range

    Filename F:\Belinda Carlisle - A Place On Earth [2CD]\CD1\Belinda Carlisle - A Place On Earth - The Greatest Hits.wav

    Peak level 98.8 %
    Range quality 100.0 %
    Test CRC BEE9FE1D
    Copy CRC BEE9FE1D
    Copy OK

    No errors occurred


    AccurateRip summary

    Track 1 cannot be verified as accurate (confidence 3) [3166C0F8], AccurateRip returned [11E066C7]
    Track 2 cannot be verified as accurate (confidence 3) [E93C0259], AccurateRip returned [3089820B]
    Track 3 cannot be verified as accurate (confidence 3) [3F3AA8A7], AccurateRip returned [02BBE6B9]
    Track 4 cannot be verified as accurate (confidence 3) [DBF2F220], AccurateRip returned [22C9ECF8]
    Track 5 cannot be verified as accurate (confidence 3) [4D18212C], AccurateRip returned [52DDD2D2]
    Track 6 cannot be verified as accurate (confidence 3) [2E309B59], AccurateRip returned [3162DB50]
    Track 7 cannot be verified as accurate (confidence 3) [9A18DD76], AccurateRip returned [C7B84697]
    Track 8 cannot be verified as accurate (confidence 3) [A833F311], AccurateRip returned [82CCD939]
    Track 9 cannot be verified as accurate (confidence 3) [86EDF9FF], AccurateRip returned [0A3C9304]
    Track 10 cannot be verified as accurate (confidence 3) [B9FAEBBD], AccurateRip returned [8CE77CB2]
    Track 11 cannot be verified as accurate (confidence 3) [32BD788F], AccurateRip returned [7B99D9F3]
    Track 12 cannot be verified as accurate (confidence 3) [73CBD759], AccurateRip returned [DF617108]
    Track 13 cannot be verified as accurate (confidence 3) [02E8C4AE], AccurateRip returned [1E7199DF]
    Track 14 cannot be verified as accurate (confidence 3) [346C23FE], AccurateRip returned [E8DF6CBB]
    Track 15 cannot be verified as accurate (confidence 3) [7E367B17], AccurateRip returned [3978F23C]
    Track 16 cannot be verified as accurate (confidence 3) [35DE8645], AccurateRip returned [7650C939]
    Track 17 cannot be verified as accurate (confidence 3) [4F13CBFD], AccurateRip returned [71D0A582]
    Track 18 cannot be verified as accurate (confidence 3) [B1268506], AccurateRip returned [0D4DA063]

    No tracks could be verified as accurate
    You may have a different pressing from the one(s) in the database

    End of status report

    /////////////////////////////////////////////////////////////////////////////////////

    Exact Audio Copy V0.99 prebeta 4 from 23. January 2008

    EAC extraction logfile from 1. April 2009, 13:57

    Belinda Carlisle / A Place On Earth - The Greatest Hits - CD 2 (Limited Edition Bonus CD)

    Used drive : ASUS DRW-1608P Adapter: 2 ID: 0

    Read mode : Secure
    Utilize accurate stream : Yes
    Defeat audio cache : Yes
    Make use of C2 pointers : No

    Read offset correction : 48
    Overread into Lead-In and Lead-Out : No
    Fill up missing offset samples with silence : Yes
    Delete leading and trailing silent blocks : No
    Null samples used in CRC calculations : Yes
    Used interface : Native Win32 interface for Win NT & 2000

    Used output format : User Defined Encoder
    Selected bitrate : 1024 kBit/s
    Quality : High
    Add ID3 tag : Yes
    Command line compressor : C:\Program Files (x86)\FLAC\flac.exe
    Additional command line options : -5 -V -T "ARTIST=%a" -T "TITLE=%t" -T "ALBUM=%g" -T "DATE=%y" -T "TRACKNUMBER=%n" -T "GENRE=%m" -T "COMMENT=EAC FLAC -5" %s


    TOC of the extracted CD

    Track | Start | Length | Start sector | End sector
    ---------------------------------------------------------
    1 | 0:00.00 | 5:59.35 | 0 | 26959
    2 | 5:59.35 | 7:33.37 | 26960 | 60971
    3 | 13:32.72 | 7:53.00 | 60972 | 96446
    4 | 21:25.72 | 8:28.00 | 96447 | 134546
    5 | 29:53.72 | 5:11.00 | 134547 | 157871
    6 | 35:04.72 | 8:05.00 | 157872 | 194246
    7 | 43:09.72 | 5:33.03 | 194247 | 219224
    8 | 48:43.00 | 3:12.00 | 219225 | 233624
    9 | 51:55.00 | 4:30.00 | 233625 | 253874
    10 | 56:25.00 | 5:16.10 | 253875 | 277584


    Range status and errors

    Selected range

    Filename F:\Belinda Carlisle - A Place On Earth [2CD]\CD2\Belinda Carlisle - A Place On Earth - The Greatest Hits - CD 2 (Limited Edition Bonus CD).wav

    Peak level 98.8 %
    Range quality 100.0 %
    Test CRC EA1A6810
    Copy CRC EA1A6810
    Copy OK

    No errors occurred


    AccurateRip summary

    Track 1 cannot be verified as accurate (confidence 10) [C09A408A], AccurateRip returned [478DED4B]
    Track 2 cannot be verified as accurate (confidence 10) [4BB3D3FC], AccurateRip returned [4E25FEA3]
    Track 3 cannot be verified as accurate (confidence 10) [9FE0BC7A], AccurateRip returned [0EE9D9F5]
    Track 4 cannot be verified as accurate (confidence 10) [8638B17D], AccurateRip returned [4138EA7D]
    Track 5 cannot be verified as accurate (confidence 10) [4A4CB4F6], AccurateRip returned [E9E6652F]
    Track 6 cannot be verified as accurate (confidence 10) [0663D81C], AccurateRip returned [CEC15192]
    Track 7 cannot be verified as accurate (confidence 10) [E8014335], AccurateRip returned [A68302C0]
    Track 8 cannot be verified as accurate (confidence 10) [55549C89], AccurateRip returned [B24E1727]
    Track 9 cannot be verified as accurate (confidence 10) [A2D94150], AccurateRip returned [CBDEB461]
    Track 10 cannot be verified as accurate (confidence 10) [FAE4739F], AccurateRip returned [1733A53C]

    No tracks could be verified as accurate
    You may have a different pressing from the one(s) in the database

    End of status report

    ################################################## ###

    -----------------------

    DON'T MODIFY THIS FILE

    -----------------------

    PERFORMER: auCDtect Task Manager, ver. 1.6.0 RC1 build 1.6.0.1
    Copyright (c) 2008-2010 y-soft. All rights reserved
    http://y-soft.org

    ANALYZER: auCDtect: CD records authenticity detector, version 0.8.2
    Copyright (c) 2004 Oleg Berngardt. All rights reserved.
    Copyright (c) 2004 Alexander Djourik. All rights reserved.


    FILE: Belinda Carlisle - A Place On Earth - The Greatest Hits.flac
    Size: 555169026 Hash: 5E63E4BFF36D95A2110B2B280BAAA42A Accuracy: -m0
    Conclusion: CDDA 100%
    Signature: 089350433D8BE90FBAF29E4FB529C6C1824DB19A

    /////////////////////////////////////////////////////////////////////////////

    -----------------------

    DON'T MODIFY THIS FILE

    -----------------------

    PERFORMER: auCDtect Task Manager, ver. 1.6.0 RC1 build 1.6.0.1
    Copyright (c) 2008-2010 y-soft. All rights reserved
    http://y-soft.org

    ANALYZER: auCDtect: CD records authenticity detector, version 0.8.2
    Copyright (c) 2004 Oleg Berngardt. All rights reserved.
    Copyright (c) 2004 Alexander Djourik. All rights reserved.


    FILE: Belinda Carlisle - A Place On Earth - The Greatest Hits - CD 2 (Limited Edition Bonus CD).flac
    Size: 461923095 Hash: D52C5DCF8431A4F4803B7C059E55E12C Accuracy: -m0
    Conclusion: CDDA 100%
    Signature: 6C467DD504A6C31391252279FC91DD94D08153B3

    ################################################## ####

    foobar2000 1.3.3 / Dynamic Range Meter 1.1.1
    log date: 2014-09-05 00:41:44

    --------------------------------------------------------------------------------
    Analyzed: Belinda Carlisle / A Place On Earth - The Greatest Hits
    --------------------------------------------------------------------------------

    DR Peak RMS Duration Track
    --------------------------------------------------------------------------------
    DR8 -0.10 dB -9.71 dB 4:08 01-Heaven Is A Place On Earth
    DR8 -0.10 dB -10.04 dB 4:15 02-I Get Weak
    DR9 -0.10 dB -10.82 dB 3:42 03-Circle In The Sand
    DR8 -0.10 dB -9.41 dB 4:16 04-Leave A Light On
    DR9 -0.10 dB -11.23 dB 4:13 05-La Luna
    DR7 -0.10 dB -8.95 dB 4:18 06-(We Want) The Same Thing
    DR8 -0.10 dB -10.57 dB 4:12 07-Summer Rain
    DR8 -0.10 dB -9.78 dB 4:24 08-Live Your Life Be Free
    DR9 -0.10 dB -10.46 dB 4:15 09-Do You Feel Like I Feel?
    DR8 -0.10 dB -9.63 dB 4:12 10-Little Black Book
    DR8 -0.10 dB -9.85 dB 4:16 11-Big Scary Animal
    DR8 -0.10 dB -9.79 dB 4:01 12-In Too Deep
    DR8 -0.10 dB -9.94 dB 2:58 13-California
    DR8 -0.40 dB -9.35 dB 3:06 14-Always Breaking My Heart
    DR8 -0.40 dB -9.94 dB 3:52 15-Love In The Key Of C
    DR7 -1.50 dB -9.96 dB 3:49 16-Feels Like I've Known You Forever
    DR8 -0.10 dB -9.45 dB 4:22 17-A Prayer For Everyone
    DR7 -0.50 dB -9.12 dB 3:47 18-All God's Children
    --------------------------------------------------------------------------------

    Number of tracks: 18
    Official DR value: DR8

    Samplerate: 44100 Hz
    Channels: 2
    Bits per sample: 16
    Bitrate: 1026 kbps
    Codec: FLAC
    ================================================== ==============================

    /////////////////////////////////////////////////////////////////////////////////////

    foobar2000 1.3.3 / Dynamic Range Meter 1.1.1
    log date: 2014-09-05 00:40:57

    --------------------------------------------------------------------------------
    Analyzed: Belinda Carlisle / A Place On Earth - The Greatest Hits - CD 2 (Limited Edition Bonus CD)
    --------------------------------------------------------------------------------

    DR Peak RMS Duration Track
    --------------------------------------------------------------------------------
    DR9 -0.10 dB -10.40 dB 5:59 01-Heaven Is A Place On Earth (Heavenly Version)
    DR9 -0.10 dB -10.80 dB 7:33 02-I Get Weak (12' Version)
    DR10 -0.10 dB -12.53 dB 7:53 03-Circle In The Sand (Beach Party Mix)
    DR9 -0.10 dB -10.92 dB 8:28 04-World Without You (Extended Worldwide Mix)
    DR8 -0.10 dB -9.62 dB 5:11 05-(We Want) The Same Thing (Summer Remix)
    DR10 -0.10 dB -11.17 dB 8:05 06-Summer Rain (Justin Strauss Mix)
    DR10 -0.10 dB -11.25 dB 5:33 07-Live Your Life Be Free (Club Mix)
    DR10 -0.10 dB -12.19 dB 3:12 08-Only A Dream
    DR9 -0.10 dB -10.57 dB 4:30 09-The Air You Breathe
    DR10 -0.10 dB -11.17 dB 5:16 10-Little Black Book (Little Black Mix)
    --------------------------------------------------------------------------------

    Number of tracks: 10
    Official DR value: DR9

    Samplerate: 44100 Hz
    Channels: 2
    Bits per sample: 16
    Bitrate: 998 kbps
    Codec: FLAC
    ================================================== ==============================

    ################################################## #

    [свернуть]

    A Place on Earth: The Greatest Hits - второй альбом лучших хитов американской певицы Белинды Карлайл, выпущенный в Великобритании 30 ноября 1999 года Virgin Records. Выпущен ограниченный выпуск с бонусным диском с ремиксами и редкими би-сайдами.
    Belinda Carlisle - Leave A Light On



    Скрытый текст (вы должны войти под своим логином или зарегистрироваться и иметь 5 сообщение(ий)):
    У вас нет прав чтобы видеть скрытый текст, содержащийся здесь.

  4. 4 пользователя(ей) сказали cпасибо:

    Coroed (08.08.2019), Puharik (17.08.2019), vlad56 (11.08.2019), Старец (19.08.2019)

  5. #12
    Супер модератор Array Аватар для aheron
    Регистрация
    11.06.2018
    Сообщений
    570
    Сказал(а) спасибо
    4,348
    Поблагодарили 3,288 раз(а)
    в 527 сообщениях
    Онлайн
    1 Нед 4 Дней 6 ч 41 мин 51 сек
    В среднем
    4 мин 56 сек
    Belinda Carlisle - The Collection (2002) [Japan 2004]





    Performer: Belinda Carlisle
    Album: The Collection
    Label: Virgin Records Limited/Toshiba EMI LTD. Made in Japan.
    Catalog #: TOCP-53354
    Style: Soft Rock, Pop Rock
    Year: 2002 (Compilation, 2004)
    Format: FLAC (image + .cue)
    Bitrate: lossless
    Covers: in archive
    Amount of tracks: 15
    Size ZIP: ~ 583 mb

    ••• Tracklist •••

    01. Belinda Carlisle - Heaven Is A Place On Earth [4:07]
    02. Belinda Carlisle - I Get Weak [4:52]
    03. Belinda Carlisle - World Without You [4:42]
    04. Belinda Carlisle - Runaway Horses [4:42]
    05. Belinda Carlisle - Summer Rain [5:29]
    06. Belinda Carlisle - Do You Feel Like I Feel? [5:09]
    07. Belinda Carlisle - Little Black Book [4:12]
    08. Belinda Carlisle - All God's Children [3:49]
    09. Belinda Carlisle - A Prayer For Everyone [4:20]
    10. Belinda Carlisle - Fool For Love [3:57]
    11. Belinda Carlisle - We Can Change [3:47]
    12. Belinda Carlisle - Love Revolution [5:08]
    13. Belinda Carlisle - Valentine [5:04]
    14. Belinda Carlisle - Whatever It Takes [4:50]
    15. Belinda Carlisle - Vision Of You [4:41]
    -----------------------------------
    Total time: [1:08:48]

    Notes:
    =================
    This Compilation Ⓟ & Ⓒ 2002 Virgin Records Limited
    Manufactured By – Toshiba EMI Ltd.
    [свернуть]

    ••• Log EAC + Log auCDtect + Dynamic Range Meter + Spectrum •••

    Exact Audio Copy V0.99 prebeta 4 from 23. January 2008

    Отчёт EAC об извлечении, выполненном 8. октября 2008, 23:27

    Belinda Carlisle / The Collection

    Дисковод: PLEXTOR DVDR PX-716A Adapter: 0 ID: 0

    Режим чтения : Достоверность
    Использование точного потока : Да
    Отключение кэша аудио : Да
    Использование указателей C2 : Нет

    Коррекция смещения при чтении : 30
    Способность читать области Lead-in и Lead-out : Нет
    Заполнение пропущенных сэмплов тишиной : Да
    Удаление блоков с тишиной в начале и конце : Нет
    При вычислениях CRC использовались нулевые сэмплы : Да
    Интерфейс : Встроенный Win32-интерфейс для Win NT/2000

    Выходной формат : Пользовательский кодировщик
    Выбранный битрейт : 128 kBit/s
    Качество : Высокий
    Добавление ID3-тэга : Нет
    Утилита сжатия : C:\Program Files\FLAC\flac.exe
    Дополнительные параметры : -8 -V -T "ARTIST=%a" -T "TITLE=%t" -T "ALBUM=%g" -T "DATE=%y" -T "TRACKNUMBER=%n" -T "GENRE=%m" -T "COMMENT=EAC FLAC -8" %s


    TOC извлечённого CD

    Трек | Старт | Длительность | Начальный сектор | Конечный сектор
    ---------------------------------------------------------------------
    1 | 0:00.00 | 4:06.72 | 0 | 18521
    2 | 4:06.72 | 4:51.43 | 18522 | 40389
    3 | 8:58.40 | 4:41.45 | 40390 | 61509
    4 | 13:40.10 | 4:41.65 | 61510 | 82649
    5 | 18:22.00 | 5:29.35 | 82650 | 107359
    6 | 23:51.35 | 5:09.37 | 107360 | 130571
    7 | 29:00.72 | 4:12.13 | 130572 | 149484
    8 | 33:13.10 | 3:49.35 | 149485 | 166694
    9 | 37:02.45 | 4:20.15 | 166695 | 186209
    10 | 41:22.60 | 3:56.70 | 186210 | 203979
    11 | 45:19.55 | 3:46.67 | 203980 | 220996
    12 | 49:06.47 | 5:07.60 | 220997 | 244081
    13 | 54:14.32 | 5:03.48 | 244082 | 266854
    14 | 59:18.05 | 4:49.50 | 266855 | 288579
    15 | 64:07.55 | 4:41.12 | 288580 | 309666


    Характеристики диапазона извлечения и сообщения об ошибках

    Выбранный диапазон

    Имя файла E:\EAC rip\Belinda Carlisle - The Collection.wav

    Пиковый уровень 98.0 %
    Качество диапазона 99.9 %
    CRC теста F957232A
    CRC копии F957232A
    Копирование... OK

    Ошибок не произошло


    AccurateRip: сводка

    Трек 1 точность не определена (достоверность 5) [2021F4A3], AccurateRip вернул [847041F5]
    Трек 2 точность не определена (достоверность 6) [8574E034], AccurateRip вернул [CB444846]
    Трек 3 точность не определена (достоверность 6) [D3E797F4], AccurateRip вернул [D137C0DC]
    Трек 4 точность не определена (достоверность 6) [B485AA6A], AccurateRip вернул [AFF8644C]
    Трек 5 точность не определена (достоверность 6) [10F4D496], AccurateRip вернул [CBEEA764]
    Трек 6 точность не определена (достоверность 6) [6AB3626D], AccurateRip вернул [74A32733]
    Трек 7 точность не определена (достоверность 6) [5B3887C9], AccurateRip вернул [00510F91]
    Трек 8 точность не определена (достоверность 5) [4BB7E4FC], AccurateRip вернул [D1D536C0]
    Трек 9 точность не определена (достоверность 5) [2E29DB54], AccurateRip вернул [0255EADA]
    Трек 10 точность не определена (достоверность 6) [3686DE46], AccurateRip вернул [D3B73FA2]
    Трек 11 точность не определена (достоверность 5) [7645ABED], AccurateRip вернул [6D890A29]
    Трек 12 точность не определена (достоверность 6) [028C4EDE], AccurateRip вернул [6A987256]
    Трек 13 точность не определена (достоверность 5) [3C9A83B3], AccurateRip вернул [E19AA7B3]
    Трек 14 точность не определена (достоверность 5) [CC387879], AccurateRip вернул [59C6BCE1]
    Трек 15 точность не определена (достоверность 5) [22E32A82], AccurateRip вернул [AAD3AC70]

    Ни один трек не прошёл проверки на точность
    В вашей базе может быть иной вариант штамповки диска

    Конец отчёта

    ////////////////////////////////////////////////////////////////////////////////////

    -----------------------

    DON'T MODIFY THIS FILE

    -----------------------

    PERFORMER: auCDtect Task Manager, ver. 1.6.0 RC1 build 1.6.0.1
    Copyright (c) 2008-2010 y-soft. All rights reserved
    http://y-soft.org

    ANALYZER: auCDtect: CD records authenticity detector, version 0.8.2
    Copyright (c) 2004 Oleg Berngardt. All rights reserved.
    Copyright (c) 2004 Alexander Djourik. All rights reserved.


    FILE: Belinda Carlisle - The Collection.flac
    Size: 540534585 Hash: EA1EB466CC512F134834732D3F290DA6 Accuracy: -m0
    Conclusion: CDDA 100%
    Signature: BC81A5E944094CD6DEA945A84B5AE61947ACDB69

    ////////////////////////////////////////////////////////////////////////////////

    foobar2000 1.3 / Dynamic Range Meter 1.1.1
    log date: 2014-01-18 16:39:58

    --------------------------------------------------------------------------------
    Analyzed: Belinda Carlisle / The Collection
    --------------------------------------------------------------------------------

    DR Peak RMS Duration Track
    --------------------------------------------------------------------------------
    DR8 -0.18 dB -9.88 dB 4:07 01-Heaven Is A Place On Earth
    DR7 -0.18 dB -9.45 dB 4:52 02-I Get Weak
    DR9 -0.18 dB -10.47 dB 4:42 03-World Without You
    DR7 -0.18 dB -9.74 dB 4:42 04-Runaway Horses
    DR7 -0.18 dB -9.49 dB 5:29 05-Summer Rain
    DR7 -0.18 dB -9.39 dB 5:09 06-Do You Feel Like I Feel?
    DR8 -0.18 dB -9.59 dB 4:12 07-Little Black Book
    DR7 -0.50 dB -9.18 dB 3:49 08-All God's Children
    DR8 -0.18 dB -9.41 dB 4:20 09-A Prayer For Everyone
    DR7 -0.18 dB -8.77 dB 3:57 10-Fool For Love
    DR7 -0.18 dB -8.69 dB 3:47 11-We Can Change
    DR7 -0.18 dB -8.50 dB 5:08 12-Love Revolution
    DR6 -0.18 dB -8.29 dB 5:04 13-Valentine
    DR7 -0.18 dB -9.48 dB 4:50 14-Whatever It Takes
    DR8 -0.18 dB -10.70 dB 4:41 15-Vision Of You
    --------------------------------------------------------------------------------

    Number of tracks: 15
    Official DR value: DR7

    Samplerate: 44100 Hz
    Channels: 2
    Bits per sample: 16
    Bitrate: 1047 kbps
    Codec: FLAC
    ================================================== ==============================

    ////////////////////////////////////////////////////////////////////////////////////

    [свернуть]

    Belinda Carlisle - I Get Weak



    Скрытый текст (вы должны войти под своим логином или зарегистрироваться и иметь 5 сообщение(ий)):
    У вас нет прав чтобы видеть скрытый текст, содержащийся здесь.

  6. 3 пользователя(ей) сказали cпасибо:

    Coroed (18.08.2019), Puharik (17.08.2019), Старец (19.08.2019)

  7. #13
    Супер модератор Array Аватар для aheron
    Регистрация
    11.06.2018
    Сообщений
    570
    Сказал(а) спасибо
    4,348
    Поблагодарили 3,288 раз(а)
    в 527 сообщениях
    Онлайн
    1 Нед 4 Дней 6 ч 41 мин 51 сек
    В среднем
    4 мин 56 сек
    Belinda Carlisle - The Collection (2014)





    Performer: Belinda Carlisle
    Album: The Collection
    Label: DMG TV. Made in the EU.
    Catalog #: DMGTV055
    Style: Pop Rock, Synth-pop
    Year: 2014 (Collection, Remastered)
    Format: FLAC (image + .cue)
    Bitrate: lossless
    Covers: in archive
    Amount of tracks: 19
    Size ZIP: ~ 576 mb

    ••• Tracklist •••

    01. Belinda Carlisle - (We Want) The Same Thing [4:19]
    02. Belinda Carlisle - Heaven Is A Place On Earth [3:55]
    03. Belinda Carlisle - Live Your Life Be Free [4:24]
    04. Belinda Carlisle - Leave A Light On [4:17]
    05. Belinda Carlisle - I Get Weak [4:17]
    06. Belinda Carlisle - Big Scary Animal [4:18]
    07. Belinda Carlisle - Runaway Horses [4:14]
    08. Belinda Carlisle - Mad About You [3:38]
    09. Belinda Carlisle - Half The World [4:23]
    10. Belinda Carlisle - Sun [4:00]
    11. Belinda Carlisle - Little Black Book [4:14]
    12. Belinda Carlisle - Circle In The Sand [3:42]
    13. Belinda Carlisle - In Too Deep [4:06]
    14. Belinda Carlisle - Summer Rain [4:13]
    15. Belinda Carlisle - Do You Feel Like I Feel? [4:16]
    16. Belinda Carlisle - World Without You (7'' Remix) [4:00]
    17. Belinda Carlisle - La Luna [4:13]
    18. Belinda Carlisle - Vision Of You ('91 Mix) [4:09]
    19. Belinda Carlisle - Goodbye Just Go [3:39]
    --------------------------
    Total time: [1:18:17]


    Notes:
    =====================
    Licensed From – Artist Management Services Ltd.
    Licensed From – Universal International Music B.V.
    Phonographic Copyright (p) – Demon Music Group Ltd.
    Copyright (c) – Demon Music Group Ltd.
    Marketed By – DMG TV
    [свернуть]

    ••• Log EAC + Log auCDtect + Dynamic Range Meter + Spectrum •••

    Exact Audio Copy V1.0 beta 3 from 29. August 2011

    EAC extraction logfile from 7. May 2015, 22:03

    Belinda Carlisle / The Collection (DMGTV055)

    Used drive : PLEXTOR BD-R PX-B940SA Adapter: 5 ID: 0

    Read mode : Secure
    Utilize accurate stream : Yes
    Defeat audio cache : Yes
    Make use of C2 pointers : No

    Read offset correction : 667
    Overread into Lead-In and Lead-Out : No
    Fill up missing offset samples with silence : Yes
    Delete leading and trailing silent blocks : No
    Null samples used in CRC calculations : Yes
    Used interface : Installed external ASPI interface

    Used output format : User Defined Encoder
    Selected bitrate : 128 kBit/s
    Quality : High
    Add ID3 tag : Yes
    Command line compressor : G:\Program Files (x86)\Exact Audio Copy\Flac\flac.exe
    Additional command line options : -V -8 -T "Date=%year%" -T "Genre=%genre%" %source%


    TOC of the extracted CD

    Track | Start | Length | Start sector | End sector
    ---------------------------------------------------------
    1 | 0:00.00 | 4:19.06 | 0 | 19430
    2 | 4:19.06 | 3:54.73 | 19431 | 37053
    3 | 8:14.04 | 4:24.22 | 37054 | 56875
    4 | 12:38.26 | 4:16.61 | 56876 | 76136
    5 | 16:55.12 | 4:17.27 | 76137 | 95438
    6 | 21:12.39 | 4:17.52 | 95439 | 114765
    7 | 25:30.16 | 4:13.58 | 114766 | 133798
    8 | 29:43.74 | 3:38.01 | 133799 | 150149
    9 | 33:22.00 | 4:23.03 | 150150 | 169877
    10 | 37:45.03 | 3:59.44 | 169878 | 187846
    11 | 41:44.47 | 4:14.36 | 187847 | 206932
    12 | 45:59.08 | 3:42.06 | 206933 | 223588
    13 | 49:41.14 | 4:06.27 | 223589 | 242065
    14 | 53:47.41 | 4:12.59 | 242066 | 261024
    15 | 58:00.25 | 4:15.52 | 261025 | 280201
    16 | 62:16.02 | 4:00.37 | 280202 | 298238
    17 | 66:16.39 | 4:13.20 | 298239 | 317233
    18 | 70:29.59 | 4:08.60 | 317234 | 335893
    19 | 74:38.44 | 3:38.59 | 335894 | 352302


    Range status and errors

    Selected range

    Filename D:\MUSIC\Belinda Carlisle - The Collection (DMGTV055).wav

    Peak level 99.4 %
    Extraction speed 5.3 X
    Range quality 100.0 %
    Test CRC 7E9200FE
    Copy CRC 7E9200FE
    Copy OK

    No errors occurred


    AccurateRip summary

    Track 1 accurately ripped (confidence 6) [792543ED] (AR v2)
    Track 2 accurately ripped (confidence 6) [65A6AD03] (AR v2)
    Track 3 accurately ripped (confidence 6) [5E0C043F] (AR v2)
    Track 4 accurately ripped (confidence 6) [9638EDD5] (AR v2)
    Track 5 accurately ripped (confidence 6) [69DE8569] (AR v2)
    Track 6 accurately ripped (confidence 6) [5D0501AC] (AR v2)
    Track 7 accurately ripped (confidence 6) [2B13DCE8] (AR v2)
    Track 8 accurately ripped (confidence 6) [D3763172] (AR v2)
    Track 9 accurately ripped (confidence 6) [2FF76901] (AR v2)
    Track 10 accurately ripped (confidence 6) [BCA74AC9] (AR v2)
    Track 11 accurately ripped (confidence 6) [8844B3DF] (AR v2)
    Track 12 accurately ripped (confidence 6) [0B4EF0DC] (AR v2)
    Track 13 accurately ripped (confidence 6) [AA262622] (AR v2)
    Track 14 accurately ripped (confidence 6) [266F323A] (AR v2)
    Track 15 accurately ripped (confidence 6) [E860FE43] (AR v2)
    Track 16 accurately ripped (confidence 6) [A80E78CE] (AR v2)
    Track 17 accurately ripped (confidence 6) [94B7786E] (AR v2)
    Track 18 accurately ripped (confidence 6) [F530802B] (AR v2)
    Track 19 accurately ripped (confidence 6) [44245503] (AR v2)

    All tracks accurately ripped

    End of status report

    ==== Log checksum 445CD67C83C94E86A1DDA1AE5AA337DBB13788CB66DE1EF9EB A375B0FC7FA2F0 ====

    /////////////////////////////////////////////////////////////////////////////////

    -----------------------

    DON'T MODIFY THIS FILE

    -----------------------

    PERFORMER: auCDtect Task Manager, ver. 1.6.0 RC1 build 1.6.0.1
    Copyright (c) 2008-2010 y-soft. All rights reserved
    http://y-soft.org

    ANALYZER: auCDtect: CD records authenticity detector, version 0.8.2
    Copyright (c) 2004 Oleg Berngardt. All rights reserved.
    Copyright (c) 2004 Alexander Djourik. All rights reserved.


    FILE: Belinda Carlisle - The Collection (DMGTV055).flac
    Size: 583919086 Hash: B75DD849BE888005A640CDB0A5E9FBBC Accuracy: -m0
    Conclusion: CDDA 100%
    Signature: 1BC6F7EF4B81B9C1F335A904BCD3D7476DD6C01B

    //////////////////////////////////////////////////////////////////////////////////

    foobar2000 1.3.8 / Dynamic Range Meter 1.1.1
    log date: 2015-05-10 01:05:58

    --------------------------------------------------------------------------------
    Analyzed: Belinda Carlisle / The Collection (DMGTV055)
    --------------------------------------------------------------------------------

    DR Peak RMS Duration Track
    --------------------------------------------------------------------------------
    DR9 -0.05 dB -10.10 dB 4:19 01-(We Want) The Same Thing
    DR9 -0.54 dB -10.58 dB 3:55 02-Heaven Is A Place On Earth
    DR8 -1.39 dB -11.46 dB 4:24 03-Live Your Life Be Free
    DR9 -0.75 dB -10.80 dB 4:17 04-Leave A Light On
    DR8 -0.05 dB -9.87 dB 4:17 05-I Get Weak
    DR9 -0.65 dB -11.27 dB 4:18 06-Big Scary Animal
    DR8 -0.05 dB -10.22 dB 4:14 07-Runaway Horses
    DR10 -0.25 dB -12.39 dB 3:38 08-Mad About You
    DR10 -0.05 dB -12.09 dB 4:23 09-Half The World
    DR9 -0.05 dB -10.73 dB 4:00 10-Sun
    DR9 -0.35 dB -11.24 dB 4:14 11-Little Black Book
    DR10 -0.05 dB -11.63 dB 3:42 12-Circle In The Sand
    DR10 -0.05 dB -11.76 dB 4:06 13-In Too Deep
    DR9 -0.05 dB -11.83 dB 4:13 14-Summer Rain
    DR8 -0.22 dB -10.33 dB 4:16 15-Do You Feel Like I Feel?
    DR10 -0.05 dB -11.17 dB 4:00 16-World Without You (7'' Remix)
    DR8 -0.05 dB -10.96 dB 4:13 17-La Luna
    DR10 -0.05 dB -11.39 dB 4:09 18-Vision Of You ('91 Mix)
    DR6 -0.05 dB -9.00 dB 3:39 19-Goodbye Just Go
    --------------------------------------------------------------------------------

    Number of tracks: 19
    Official DR value: DR9

    Samplerate: 44100 Hz
    Channels: 2
    Bits per sample: 16
    Bitrate: 994 kbps
    Codec: FLAC
    ================================================== ==============================

    /////////////////////////////////////////////////////////////////////////////////

    [свернуть]



    Belinda Carlisle - Leave A Light On



    Скрытый текст (вы должны войти под своим логином или зарегистрироваться и иметь 5 сообщение(ий)):
    У вас нет прав чтобы видеть скрытый текст, содержащийся здесь.

  8. 3 пользователя(ей) сказали cпасибо:

    Coroed (18.08.2019), Puharik (20.08.2019), Старец (19.08.2019)

Страница 2 из 2 ПерваяПервая 12

Информация о теме

Пользователи, просматривающие эту тему

Эту тему просматривают: 1 (пользователей: 0 , гостей: 1)

Социальные закладки

Социальные закладки

Ваши права

  • Вы не можете создавать новые темы
  • Вы не можете отвечать в темах
  • Вы не можете прикреплять вложения
  • Вы не можете редактировать свои сообщения
  •