Показано с 1 по 1 из 1

Тема: Ben Webster

  1. #1
    Продвинутый Array Аватар для sergy
    Регистрация
    14.11.2018
    Адрес
    Земля
    Сообщений
    329
    Сказал(а) спасибо
    1,872
    Поблагодарили 1,517 раз(а)
    в 284 сообщениях
    Онлайн
    2 Дней 22 ч 55 мин 26 сек
    В среднем
    1 мин 24 сек

    Thumbs up Ben Webster


    1957(2001) - Ben Webster - Soulville




    Исполнитель/Artist: Ben Webster Quintet
    Альбом/Album: Soulville
    Год/Year: 1957
    Ремастеринг/Remaster: 2001
    Жанр/Genre: jazz
    Рекорд-лейбл/Record label: Verve / Ediciones Folio
    Формат/Format: Free Lossless Audio Codec (*.flac)
    Качество/Quality: Lossless
    Тип рипа/RIP Type: tracks+.cue
    Продолжительность/Length: 00:48:55
    Источник/Source: Собственный рип
    Размер/Size: 206.2 MB

    Сканы в комплекте

    Треклист

    01 - Soulville
    02 - Late date
    03 - Time on my hands
    04 - Lover come back to me
    05 - Where are you
    06 - Makin' whoopie
    07 - Ill wind

    Bonus tracks:
    08 - Who
    09 - Boogie-woogie
    10 - Roses of Picardy
    [свернуть]



    Исполнители/Performers

    Ray Brown – bass
    Benny Carter – performer
    Herb Ellis – guitar
    Stan Levey – drums
    Oscar Peterson – piano
    Ben Webster – piano, saxophone: tenor
    [свернуть]

    EAC лог

    Exact Audio Copy V1.0 beta 3 from 29. August 2011

    EAC extraction logfile from 12. September 2012, 16:39

    Ben Webster Quintet / Soulville

    Used drive : Optiarc DVD RW AD-5170A Adapter: 0 ID: 1

    Read mode : Secure
    Utilize accurate stream : Yes
    Defeat audio cache : Yes
    Make use of C2 pointers : Yes

    Read offset correction : 48
    Overread into Lead-In and Lead-Out : No
    Fill up missing offset samples with silence : Yes
    Delete leading and trailing silent blocks : No
    Null samples used in CRC calculations : Yes
    Used interface : Installed external ASPI interface
    Gap handling : Appended to previous track

    Used output format : User Defined Encoder
    Selected bitrate : 896 kBit/s
    Quality : High
    Add ID3 tag : No
    Command line compressor : C:\MMProgram\Exact Audio Copy\FLAC\FLAC.EXE
    Additional command line options : -6 -V -T "ARTIST=%artist%" -T "TITLE=%title%" -T "ALBUM=%albumtitle%" -T "DATE=%year%" -T "TRACKNUMBER=%tracknr%" -T "GENRE=%genre%" -T "COMMENT=%comment%" -T "BAND=%albuminterpret%" -T "ALBUMARTIST=%albuminterpret%" -T "COMPOSER=%composer%" %haslyrics%--tag-from-file=LYRICS="%lyricsfile%"%haslyrics% -T "DISCNUMBER=%cdnumber%" -T "TOTALDISCS=%totalcds%" -T "TOTALTRACKS=%numtracks%" %hascover%--picture="%coverfile%"%hascover% %source% -o %dest%


    TOC of the extracted CD

    Track | Start | Length | Start sector | End sector
    ---------------------------------------------------------
    1 | 0:00.33 | 8:06.12 | 33 | 36494
    2 | 8:06.45 | 7:15.25 | 36495 | 69144
    3 | 15:21.70 | 4:19.13 | 69145 | 88582
    4 | 19:41.08 | 8:28.62 | 88583 | 126744
    5 | 28:09.70 | 4:43.50 | 126745 | 148019
    6 | 32:53.45 | 4:32.00 | 148020 | 168419
    7 | 37:25.45 | 3:34.00 | 168420 | 184469
    8 | 40:59.45 | 2:59.00 | 184470 | 197894
    9 | 43:58.45 | 3:08.50 | 197895 | 212044
    10 | 47:07.20 | 2:07.00 | 212045 | 221569


    Track 1

    Filename C:\mm\Ben Webster\1957(2001) - Soulville\01 - Soulville.wav

    Pre-gap length 0:00:02.33

    Peak level 84.0 %
    Extraction speed 6.9 X
    Track quality 100.0 %
    Test CRC 2842D903
    Copy CRC 2842D903
    Accurately ripped (confidence 2) [447553AC] (AR v2)
    Copy OK

    Track 2

    Filename C:\mm\Ben Webster\1957(2001) - Soulville\02 - Late date.wav

    Pre-gap length 0:00:02.12

    Peak level 89.7 %
    Extraction speed 8.1 X
    Track quality 100.0 %
    Test CRC 5E544E03
    Copy CRC 5E544E03
    Accurately ripped (confidence 2) [EEC13ED1] (AR v2)
    Copy OK

    Track 3

    Filename C:\mm\Ben Webster\1957(2001) - Soulville\03 - Time on my hands.wav

    Pre-gap length 0:00:01.25

    Peak level 68.8 %
    Extraction speed 8.2 X
    Track quality 100.0 %
    Test CRC D388A38E
    Copy CRC D388A38E
    Accurately ripped (confidence 2) [2F8BA3EB] (AR v2)
    Copy OK

    Track 4

    Filename C:\mm\Ben Webster\1957(2001) - Soulville\04 - Lover come back to me.wav

    Pre-gap length 0:00:02.13

    Peak level 93.8 %
    Extraction speed 9.9 X
    Track quality 100.0 %
    Test CRC 75EC24A5
    Copy CRC 2EB8605C
    Accurately ripped (confidence 2) [9CBC50EE] (AR v2)
    Copy OK

    Track 5

    Filename C:\mm\Ben Webster\1957(2001) - Soulville\05 - Where are you.wav

    Pre-gap length 0:00:02.00

    Peak level 67.5 %
    Extraction speed 9.8 X
    Track quality 100.0 %
    Test CRC 25379152
    Copy CRC 25379152
    Accurately ripped (confidence 2) [AFB926D4] (AR v2)
    Copy OK

    Track 6

    Filename C:\mm\Ben Webster\1957(2001) - Soulville\06 - Makin' whoopie.wav

    Pre-gap length 0:00:01.62

    Peak level 95.5 %
    Extraction speed 10.2 X
    Track quality 100.0 %
    Test CRC 54CB5428
    Copy CRC 54CB5428
    Accurately ripped (confidence 2) [D062A0B0] (AR v2)
    Copy OK

    Track 7

    Filename C:\mm\Ben Webster\1957(2001) - Soulville\07 - Ill wind.wav

    Pre-gap length 0:00:01.62

    Peak level 89.1 %
    Extraction speed 10.0 X
    Track quality 100.0 %
    Test CRC B45FB503
    Copy CRC B45FB503
    Accurately ripped (confidence 2) [C31E9BCF] (AR v2)
    Copy OK

    Track 8

    Filename C:\mm\Ben Webster\1957(2001) - Soulville\08 - Who.wav

    Pre-gap length 0:00:02.62

    Peak level 89.1 %
    Extraction speed 9.5 X
    Track quality 100.0 %
    Test CRC F09142D7
    Copy CRC F09142D7
    Accurately ripped (confidence 2) [613625CD] (AR v2)
    Copy OK

    Track 9

    Filename C:\mm\Ben Webster\1957(2001) - Soulville\09 - Boogie-woogie.wav

    Pre-gap length 0:00:02.00

    Peak level 88.7 %
    Extraction speed 7.6 X
    Track quality 99.8 %
    Test CRC DC7EFB9A
    Copy CRC DC7EFB9A
    Accurately ripped (confidence 2) [306EE4B0] (AR v2)
    Copy OK

    Track 10

    Filename C:\mm\Ben Webster\1957(2001) - Soulville\10 - Roses of Picardy.wav

    Pre-gap length 0:00:02.00

    Peak level 78.1 %
    Extraction speed 9.5 X
    Track quality 100.0 %
    Test CRC B94C7944
    Copy CRC B94C7944
    Accurately ripped (confidence 2) [42A5345F] (AR v2)
    Copy OK


    All tracks accurately ripped

    No errors occurred

    End of status report
    [свернуть]

    Лог проверки качества

    AUDIOCHECKER v2.0 beta (build 457) - by Dester - opdester@freemail.hu
    ~~~~~~~~~~~~~~~~~~~~~~~~~~~~~~~~~~
    -=== НЕ РЕДАКТИРУЙТЕ ЭТОТ ФАЙЛ! ===-

    Путь: ...\1957(2001) - Soulville

    01 -=- 01 - Soulville.flac -=- CDDA (100%)
    02 -=- 02 - Late date.flac -=- CDDA (100%)
    03 -=- 03 - Time on my hands.flac -=- CDDA (100%)
    04 -=- 04 - Lover come back to me.flac -=- CDDA (100%)
    05 -=- 05 - Where are you.flac -=- CDDA (100%)
    06 -=- 06 - Makin' whoopie.flac -=- CDDA (100%)
    07 -=- 07 - Ill wind.flac -=- CDDA (100%)
    08 -=- 08 - Who.flac -=- CDDA (99%)
    09 -=- 09 - Boogie-woogie.flac -=- CDDA (99%)
    10 -=- 10 - Roses of Picardy.flac -=- CDDA (100%)

    Сводка 99,80% CDDA

    47390948
    [свернуть]

    Скачать Ben Webster - Soulville

    Скрытый текст (вы должны войти под своим логином или зарегистрироваться и иметь 5 сообщение(ий)):
    У вас нет прав чтобы видеть скрытый текст, содержащийся здесь.
    [свернуть]

  2. 4 пользователя(ей) сказали cпасибо:

    aheron (06.12.2018), hohho (06.12.2018), Lupus (06.12.2018), Puharik (06.12.2018)

Информация о теме

Пользователи, просматривающие эту тему

Эту тему просматривают: 1 (пользователей: 0 , гостей: 1)

Социальные закладки

Социальные закладки

Ваши права

  • Вы не можете создавать новые темы
  • Вы не можете отвечать в темах
  • Вы не можете прикреплять вложения
  • Вы не можете редактировать свои сообщения
  •