Страница 2 из 2 ПерваяПервая 12
Показано с 11 по 15 из 15

Тема: Sheryl Crow

  1. #1
    Бывалый Array Аватар для sergy
    Регистрация
    14.11.2018
    Адрес
    Земля
    Сообщений
    495
    Сказал(а) спасибо
    3,157
    Поблагодарили 2,261 раз(а)
    в 460 сообщениях
    Онлайн
    4 Дней 10 ч 28 мин
    В среднем
    1 мин 57 сек

    Thumbs up Sheryl Crow






    Ше́рил Сью́зэнн Кро́у (англ. Sheryl Suzanne Crow; 11 февраля 1962, Кеннетт, Миссури) — американская исполнительница, гитаристка, бас-гитаристка и автор песен, девятикратная обладательница премии Грэмми. Есть исполнители, которые ждут признания годами, чтобы получить заветную премию. А есть счастливчики, которые могут похвастаться не одной, а даже несколькими премиями. Такая знаменитая певица, как Sheryl Crow, целых девять раз получала премию «Грэмми». Шерил не только талантливая певица, она автор песен, гитаристка и бас-гитаристка. До 24 лет она не могла найти признания в родном Сент-Луисе, играя в небольших группах и обучая музыке детей младших классов в школе. Переехав в Лос-Анджелес, она успешно прошла прослушивание и стала бэк-вокалисткой в группе Майкла Джексона. По окончанию турне «Bad» в 1989 году Шерил вернулась к своей сольной карьере и сочинению собственных песен. В 1993 году выходит в свет первый сольный альбом «Tuesday Night Music Club». С тех пор были выпущены десять альбомов, последний из которых, «100 Miles From Memphis», вышел в 2010 году. Ее композиции не только занимали первые места в чартах и позволяли ей получить огромную популярность. Шерил написала саундтреки к таким фильмам, как «Завтра не умрет никогда», «Планета Ка-Пэкс», «Тачки» и др. Личная жизнь певицы не очень складывалась, в связи с чем она усыновила двух мальчиков. В 2011 году она победила рак молочной железы, а сейчас, к сожалению, ведет борьбу с раком мозга.Шерил Кроу дважды номинировалась на Золотой Глобус в категории «лучшая песня к фильму». В качестве бэк-вокалистки работала с Майклом Джексоном, Джорджем Харрисоном, Эриком Клэптоном, Бобом Диланом и многими другими известными музыкантами.

  2. Пользователь сказал cпасибо:

    aheron (17.02.2019)

  3. #11
    Бывалый Array Аватар для sergy
    Регистрация
    14.11.2018
    Адрес
    Земля
    Сообщений
    495
    Сказал(а) спасибо
    3,157
    Поблагодарили 2,261 раз(а)
    в 460 сообщениях
    Онлайн
    4 Дней 10 ч 28 мин
    В среднем
    1 мин 57 сек

    Thumbs up 2008 - Detours


    2008 - Sheryl Crow - Detours




    Исполнитель/Artist: Sheryl Crow
    Альбом/Album: Detours
    Год/Year: 2008
    Жанр/Genre: Rock, pop rock, folk rock
    Страна/Country: Россия
    Рекорд-лейбл/Record label: A&M Records / Никитин
    Номер в каталоге/Catalogue #: 460502601611
    Формат/Format: Free Lossless Audio Codec (*.flac)
    Качество/Quality: Lossless
    Тип рипа/RIP Type: tracks+.cue
    Продолжительность/Length: 00:53:00
    Источник/Source: Собственный рип
    Размер/Size: 362.3 MB

    Сканы в комплекте

    Треклист

    01. God Bless This Mess [0:02:09.18]
    02. Shine Over Babylon [0:04:02.41]
    03. Love Is Free [0:03:22.50]
    04. Peace Be Upon Us [0:04:22.19]
    05. Gasoline [0:05:07.17]
    06. Out Of Our Heads [0:04:27.62]
    07. Detours [0:03:28.71]
    08. Now That You're Gone [0:03:51.16]
    09. Drunk With The Thought Of You [0:02:38.60]
    10. Diamond Ring [0:04:10.33]
    11. Motivation [0:03:47.23]
    12. Make It Go Away (Radiation Song) [0:03:23.53]
    13. Love Is All There Is [0:04:01.11]
    14. Lullaby For Wyatt [0:04:07.59]
    [свернуть]



    EAC лог

    Exact Audio Copy V1.0 beta 3 from 29. August 2011

    EAC extraction logfile from 3. September 2013, 21:48

    Sheryl Crow / Detours

    Used drive : ATAPI iHAS124 D Adapter: 0 ID: 2

    Read mode : Secure
    Utilize accurate stream : Yes
    Defeat audio cache : Yes
    Make use of C2 pointers : No

    Read offset correction : 6
    Overread into Lead-In and Lead-Out : No
    Fill up missing offset samples with silence : Yes
    Delete leading and trailing silent blocks : No
    Null samples used in CRC calculations : Yes
    Used interface : Installed external ASPI interface
    Gap handling : Appended to previous track

    Used output format : User Defined Encoder
    Selected bitrate : 1024 kBit/s
    Quality : High
    Add ID3 tag : No
    Command line compressor : C:\Program Files (x86)\Exact Audio Copy\FLAC\FLAC.EXE
    Additional command line options : -6 -V -T "ARTIST=%artist%" -T "TITLE=%title%" -T "ALBUM=%albumtitle%" -T "DATE=%year%" -T "TRACKNUMBER=%tracknr%" -T "GENRE=%genre%" -T "COMMENT=%comment%" -T "BAND=%albuminterpret%" -T "ALBUMARTIST=%albuminterpret%" -T "COMPOSER=%composer%" %haslyrics%--tag-from-file=LYRICS="%lyricsfile%"%haslyrics% -T "DISCNUMBER=%cdnumber%" -T "TOTALDISCS=%totalcds%" -T "TOTALTRACKS=%numtracks%" %hascover%--picture="%coverfile%"%hascover% %source% -o %dest%


    TOC of the extracted CD

    Track | Start | Length | Start sector | End sector
    ---------------------------------------------------------
    1 | 0:00.00 | 2:09.18 | 0 | 9692
    2 | 2:09.18 | 4:02.41 | 9693 | 27883
    3 | 6:11.59 | 3:22.50 | 27884 | 43083
    4 | 9:34.34 | 4:22.19 | 43084 | 62752
    5 | 13:56.53 | 5:07.17 | 62753 | 85794
    6 | 19:03.70 | 4:27.62 | 85795 | 105881
    7 | 23:31.57 | 3:28.71 | 105882 | 121552
    8 | 27:00.53 | 3:51.16 | 121553 | 138893
    9 | 30:51.69 | 2:38.60 | 138894 | 150803
    10 | 33:30.54 | 4:10.33 | 150804 | 169586
    11 | 37:41.12 | 3:47.23 | 169587 | 186634
    12 | 41:28.35 | 3:23.53 | 186635 | 201912
    13 | 44:52.13 | 4:01.11 | 201913 | 219998
    14 | 48:53.24 | 4:07.59 | 219999 | 238582


    Track 1

    Filename C:\mm\Sheryl Crow\2008 - Detours\01 - God Bless This Mess.wav

    Pre-gap length 0:00:02.00

    Peak level 69.6 %
    Extraction speed 1.6 X
    Track quality 100.0 %
    Test CRC C6742C4A
    Copy CRC C6742C4A
    Accurately ripped (confidence 122) [0BBAACD9] (AR v2)
    Copy OK

    Track 2

    Filename C:\mm\Sheryl Crow\2008 - Detours\02 - Shine Over Babylon.wav

    Peak level 100.0 %
    Extraction speed 2.0 X
    Track quality 100.0 %
    Test CRC 49CBA33F
    Copy CRC 49CBA33F
    Accurately ripped (confidence 121) [03A29A8D] (AR v2)
    Copy OK

    Track 3

    Filename C:\mm\Sheryl Crow\2008 - Detours\03 - Love Is Free.wav

    Peak level 99.7 %
    Extraction speed 2.1 X
    Track quality 100.0 %
    Test CRC D7F73037
    Copy CRC D7F73037
    Accurately ripped (confidence 121) [1D7EC297] (AR v2)
    Copy OK

    Track 4

    Filename C:\mm\Sheryl Crow\2008 - Detours\04 - Peace Be Upon Us.wav

    Peak level 99.7 %
    Extraction speed 1.8 X
    Track quality 99.9 %
    Test CRC E2F9C2F5
    Copy CRC E2F9C2F5
    Accurately ripped (confidence 122) [B077E434] (AR v2)
    Copy OK

    Track 5

    Filename C:\mm\Sheryl Crow\2008 - Detours\05 - Gasoline.wav

    Peak level 100.0 %
    Extraction speed 2.6 X
    Track quality 100.0 %
    Test CRC 72848BB8
    Copy CRC 72848BB8
    Accurately ripped (confidence 122) [44BCD793] (AR v2)
    Copy OK

    Track 6

    Filename C:\mm\Sheryl Crow\2008 - Detours\06 - Out Of Our Heads.wav

    Peak level 99.7 %
    Extraction speed 2.8 X
    Track quality 100.0 %
    Test CRC ADA07718
    Copy CRC ADA07718
    Accurately ripped (confidence 122) [1BF9E8D0] (AR v2)
    Copy OK

    Track 7

    Filename C:\mm\Sheryl Crow\2008 - Detours\07 - Detours.wav

    Pre-gap length 0:00:00.71

    Peak level 99.7 %
    Extraction speed 2.8 X
    Track quality 100.0 %
    Test CRC 238BEA28
    Copy CRC 238BEA28
    Accurately ripped (confidence 122) [32E37717] (AR v2)
    Copy OK

    Track 8

    Filename C:\mm\Sheryl Crow\2008 - Detours\08 - Now That You're Gone.wav

    Peak level 100.0 %
    Extraction speed 3.0 X
    Track quality 100.0 %
    Test CRC 3FB93AF1
    Copy CRC 3FB93AF1
    Accurately ripped (confidence 121) [93AED606] (AR v2)
    Copy OK

    Track 9

    Filename C:\mm\Sheryl Crow\2008 - Detours\09 - Drunk With The Thought Of You.wav

    Peak level 99.7 %
    Extraction speed 2.9 X
    Track quality 100.0 %
    Test CRC F372B308
    Copy CRC F372B308
    Accurately ripped (confidence 121) [7E59B0BB] (AR v2)
    Copy OK

    Track 10

    Filename C:\mm\Sheryl Crow\2008 - Detours\10 - Diamond Ring.wav

    Peak level 100.0 %
    Extraction speed 3.3 X
    Track quality 100.0 %
    Test CRC 9D803B17
    Copy CRC 9D803B17
    Accurately ripped (confidence 121) [FA872B48] (AR v2)
    Copy OK

    Track 11

    Filename C:\mm\Sheryl Crow\2008 - Detours\11 - Motivation.wav

    Peak level 99.8 %
    Extraction speed 3.3 X
    Track quality 100.0 %
    Test CRC F519ABD5
    Copy CRC F519ABD5
    Accurately ripped (confidence 121) [E2067BC2] (AR v2)
    Copy OK

    Track 12

    Filename C:\mm\Sheryl Crow\2008 - Detours\12 - Make It Go Away (Radiation Song).wav

    Peak level 99.7 %
    Extraction speed 3.4 X
    Track quality 100.0 %
    Test CRC 199D4A0E
    Copy CRC 199D4A0E
    Accurately ripped (confidence 122) [E1F01487] (AR v2)
    Copy OK

    Track 13

    Filename C:\mm\Sheryl Crow\2008 - Detours\13 - Love Is All There Is.wav

    Peak level 99.7 %
    Extraction speed 3.6 X
    Track quality 100.0 %
    Test CRC BDD7C561
    Copy CRC BDD7C561
    Accurately ripped (confidence 122) [DAA27B3B] (AR v2)
    Copy OK

    Track 14

    Filename C:\mm\Sheryl Crow\2008 - Detours\14 - Lullaby For Wyatt.wav

    Peak level 99.7 %
    Extraction speed 3.7 X
    Track quality 100.0 %
    Test CRC 6C2E1331
    Copy CRC 6C2E1331
    Accurately ripped (confidence 119) [947890DA] (AR v2)
    Copy OK


    All tracks accurately ripped

    No errors occurred

    End of status report
    [свернуть]

    Лог проверки качества

    AUDIOCHECKER v2.0 beta (build 457) - by Dester - opdester@freemail.hu
    ~~~~~~~~~~~~~~~~~~~~~~~~~~~~~~~~~~
    -=== НЕ РЕДАКТИРУЙТЕ ЭТОТ ФАЙЛ! ===-

    Путь: ...\2008 - Detours

    01 -=- 01 - God Bless This Mess.flac -=- MPEG (92%)
    02 -=- 02 - Shine Over Babylon.flac -=- CDDA (100%)
    03 -=- 03 - Love Is Free.flac -=- CDDA (100%)
    04 -=- 04 - Peace Be Upon Us.flac -=- CDDA (100%)
    05 -=- 05 - Gasoline.flac -=- CDDA (100%)
    06 -=- 06 - Out Of Our Heads.flac -=- CDDA (100%)
    07 -=- 07 - Detours.flac -=- CDDA (100%)
    08 -=- 08 - Now That You're Gone.flac -=- CDDA (100%)
    09 -=- 09 - Drunk With The Thought Of You.flac -=- CDDA (100%)
    10 -=- 10 - Diamond Ring.flac -=- CDDA (100%)
    11 -=- 11 - Motivation.flac -=- CDDA (100%)
    12 -=- 12 - Make It Go Away (Radiation Song).flac -=- CDDA (100%)
    13 -=- 13 - Love Is All There Is.flac -=- CDDA (100%)
    14 -=- 14 - Lullaby For Wyatt.flac -=- CDDA (100%)

    Сводка 93,43% CDDA

    87005860
    [свернуть]

    Скачать Sheryl Crow - Detours

    Скрытый текст (вы должны войти под своим логином или зарегистрироваться и иметь 5 сообщение(ий)):
    У вас нет прав чтобы видеть скрытый текст, содержащийся здесь.
    [свернуть]

  4. 5 пользователя(ей) сказали cпасибо:

    aheron (17.02.2019), Coroed (07.02.2019), Puharik (07.02.2019), Riddler (07.02.2019), vlad56 (08.02.2019)

  5. #12
    Бывалый Array Аватар для sergy
    Регистрация
    14.11.2018
    Адрес
    Земля
    Сообщений
    495
    Сказал(а) спасибо
    3,157
    Поблагодарили 2,261 раз(а)
    в 460 сообщениях
    Онлайн
    4 Дней 10 ч 28 мин
    В среднем
    1 мин 57 сек

    Thumbs up 2008 - Home For Christmas


    2008 - Sheryl Crow - Home For Christmas




    Исполнитель/Artist: Sheryl Crow
    Альбом/Album: Home For Christmas
    Год/Year: 2008
    Жанр/Genre: Christmas, country, jazz
    Страна/Country: Япония
    Рекорд-лейбл/Record label: A&M Records
    Номер в каталоге/Catalogue #: UICA-1049
    Формат/Format: Free Lossless Audio Codec (*.flac)
    Качество/Quality: Lossless
    Тип рипа/RIP Type: image+.cue
    Продолжительность/Length: 00:41:33
    Источник/Source: Собственный рип
    Размер/Size: 284.1 MB

    Сканы в комплекте

    Треклист

    01. Go Tell It On The Mountain [0:03:08.25]
    02. The Christmas Song [0:03:23.32]
    03. White Christmas [0:03:31.53]
    04. I'll Be Home For Christmas [0:03:42.09]
    05. Merry Christmas, Baby [0:03:15.56]
    06. The Bells Of St. Mary's [0:04:33.13]
    07. Blue Christmas [0:03:24.71]
    08. O Holy Night [0:03:40.23]
    09. There Is A Star That Shines Tonight [0:03:59.42]
    10. Hello My Friend, Hello [0:03:41.22]
    11. All Through The Night [0:05:13.26]
    [свернуть]



    EAC лог

    Exact Audio Copy V1.0 beta 3 from 29. August 2011

    EAC extraction logfile from 26. December 2014, 21:17

    Sheryl Crow / Home For Christmas

    Used drive : ATAPI iHAS124 D Adapter: 0 ID: 2

    Read mode : Secure
    Utilize accurate stream : Yes
    Defeat audio cache : Yes
    Make use of C2 pointers : No

    Read offset correction : 6
    Overread into Lead-In and Lead-Out : No
    Fill up missing offset samples with silence : Yes
    Delete leading and trailing silent blocks : No
    Null samples used in CRC calculations : Yes
    Used interface : Installed external ASPI interface

    Used output format : User Defined Encoder
    Selected bitrate : 1024 kBit/s
    Quality : High
    Add ID3 tag : No
    Command line compressor : C:\Program Files (x86)\Exact Audio Copy\Flac\flac.exe
    Additional command line options : -6 -V -T "ARTIST=%artist%" -T "TITLE=%title%" -T "ALBUM=%albumtitle%" -T "DATE=%year%" -T "TRACKNUMBER=%tracknr%" -T "GENRE=%genre%" -T "COMMENT=%comment%" -T "BAND=%albuminterpret%" -T "COMPOSER=%composer%" %haslyrics%--tag-from-file=LYRICS="%lyricsfile%"%haslyrics% -T "DISCNUMBER=%cdnumber%" -T "TOTALDISCS=%totalcds%" -T "TOTALTRACKS=%numtracks%" %hascover%--picture="%coverfile%"%hascover% %source% -o %dest%


    TOC of the extracted CD

    Track | Start | Length | Start sector | End sector
    ---------------------------------------------------------
    1 | 0:00.00 | 3:08.25 | 0 | 14124
    2 | 3:08.25 | 3:23.32 | 14125 | 29381
    3 | 6:31.57 | 3:31.53 | 29382 | 45259
    4 | 10:03.35 | 3:42.09 | 45260 | 61918
    5 | 13:45.44 | 3:15.56 | 61919 | 76599
    6 | 17:01.25 | 4:33.13 | 76600 | 97087
    7 | 21:34.38 | 3:24.71 | 97088 | 112458
    8 | 24:59.34 | 3:40.23 | 112459 | 128981
    9 | 28:39.57 | 3:59.42 | 128982 | 146948
    10 | 32:39.24 | 3:41.22 | 146949 | 163545
    11 | 36:20.46 | 5:13.26 | 163546 | 187046


    Range status and errors

    Selected range

    Filename C:\mm\Sheryl Crow\2008 - Home For Christmas [UICA-1049]\Sheryl Crow - Home For Christmas.wav

    Peak level 99.7 %
    Extraction speed 2.9 X
    Range quality 99.9 %
    Test CRC 27CD3A94
    Copy CRC 27CD3A94
    Copy OK

    No errors occurred


    AccurateRip summary

    Track 1 accurately ripped (confidence 11) [1BC10979] (AR v2)
    Track 2 accurately ripped (confidence 11) [74457D77] (AR v2)
    Track 3 accurately ripped (confidence 11) [A33C5547] (AR v2)
    Track 4 accurately ripped (confidence 11) [D0A8B222] (AR v2)
    Track 5 accurately ripped (confidence 11) [B1C672E9] (AR v2)
    Track 6 accurately ripped (confidence 11) [10584E8A] (AR v2)
    Track 7 accurately ripped (confidence 11) [A114B989] (AR v2)
    Track 8 accurately ripped (confidence 11) [2777EF70] (AR v2)
    Track 9 accurately ripped (confidence 11) [45274F44] (AR v2)
    Track 10 accurately ripped (confidence 11) [72C9154C] (AR v2)
    Track 11 accurately ripped (confidence 11) [1B8CBD7E] (AR v2)

    All tracks accurately ripped

    End of status report
    [свернуть]

    Лог проверки качества

    AUDIOCHECKER v2.0 beta (build 457) - by Dester - opdester@freemail.hu
    ~~~~~~~~~~~~~~~~~~~~~~~~~~~~~~~~~~
    -=== НЕ РЕДАКТИРУЙТЕ ЭТОТ ФАЙЛ! ===-

    Путь: ...\2008 - Home For Christmas [UICA-1049]

    1 -=- Sheryl Crow - Home For Christmas.flac -=- CDDA (100%)

    199646708
    [свернуть]

    Спектр частот

    [свернуть]

    Скачать Sheryl Crow - Home For Christmas

    Скрытый текст (вы должны войти под своим логином или зарегистрироваться и иметь 5 сообщение(ий)):
    У вас нет прав чтобы видеть скрытый текст, содержащийся здесь.
    [свернуть]


    Отличный альбом традиционных рождественских песенок в не самой традиционной обработке ;)
    Очень понравился

  6. 5 пользователя(ей) сказали cпасибо:

    aheron (17.02.2019), Coroed (07.02.2019), Puharik (07.02.2019), Riddler (07.02.2019), vlad56 (08.02.2019)

  7. #13
    Бывалый Array Аватар для sergy
    Регистрация
    14.11.2018
    Адрес
    Земля
    Сообщений
    495
    Сказал(а) спасибо
    3,157
    Поблагодарили 2,261 раз(а)
    в 460 сообщениях
    Онлайн
    4 Дней 10 ч 28 мин
    В среднем
    1 мин 57 сек

    Thumbs up 2010 - 100 Miles From Memphis


    2010 - Sheryl Crow - 100 Miles From Memphis




    Исполнитель/Artist: Sheryl Crow
    Альбом/Album: 100 Miles From Memphis
    Год/Year: 2010
    Жанр/Genre: Rock, Folk Rock, Pop Rock, Country, R'n'B, Soul
    Страна/Country: Соединённые Штаты
    Рекорд-лейбл/Record label: A&M Records
    Номер в каталоге/Catalogue #: B0014507-02
    Формат/Format: Free Lossless Audio Codec (*.flac)
    Качество/Quality: Lossless
    Тип рипа/RIP Type: image+.cue
    Продолжительность/Length: 00:59:36
    Источник/Source: Собственный рип
    Размер/Size: 479.6 MB

    Сканы в комплекте

    Треклист

    01. Our Love Is Fading [0:06:21.12]
    02. Eye To Eye [0:05:33.23]
    03. Sign Your Name [0:05:36.68]
    04. Summer Day [0:04:29.67]
    05. Long Road Home [0:04:12.69]
    06. Say What You Want [0:04:48.02]
    07. Peaceful Feeling [0:04:01.57]
    08. Stop [0:04:39.00]
    09. Sideways [0:05:09.01]
    10. 100 Miles From Memphis [0:04:59.27]
    11. Roses And Moonlight [0:06:39.25]
    12. I Want You Back [0:03:04.72]
    [свернуть]



    EAC лог

    Exact Audio Copy V1.0 beta 3 from 29. August 2011

    EAC extraction logfile from 7. October 2015, 2:38

    Sheryl Crow / 100 Miles From Memphis

    Used drive : ATAPI iHAS124 D Adapter: 0 ID: 2

    Read mode : Secure
    Utilize accurate stream : Yes
    Defeat audio cache : Yes
    Make use of C2 pointers : No

    Read offset correction : 6
    Overread into Lead-In and Lead-Out : No
    Fill up missing offset samples with silence : Yes
    Delete leading and trailing silent blocks : No
    Null samples used in CRC calculations : Yes
    Used interface : Installed external ASPI interface

    Used output format : User Defined Encoder
    Selected bitrate : 1024 kBit/s
    Quality : High
    Add ID3 tag : No
    Command line compressor : C:\Program Files (x86)\Exact Audio Copy\Flac\flac.exe
    Additional command line options : -6 -V -T "ARTIST=%artist%" -T "TITLE=%title%" -T "ALBUM=%albumtitle%" -T "DATE=%year%" -T "TRACKNUMBER=%tracknr%" -T "GENRE=%genre%" -T "COMMENT=%comment%" -T "BAND=%albuminterpret%" -T "COMPOSER=%composer%" %haslyrics%--tag-from-file=LYRICS="%lyricsfile%"%haslyrics% -T "DISCNUMBER=%cdnumber%" -T "TOTALDISCS=%totalcds%" -T "TOTALTRACKS=%numtracks%" %hascover%--picture="%coverfile%"%hascover% %source% -o %dest%


    TOC of the extracted CD

    Track | Start | Length | Start sector | End sector
    ---------------------------------------------------------
    1 | 0:00.00 | 6:21.12 | 0 | 28586
    2 | 6:21.12 | 5:33.23 | 28587 | 53584
    3 | 11:54.35 | 5:36.68 | 53585 | 78852
    4 | 17:31.28 | 4:29.67 | 78853 | 99094
    5 | 22:01.20 | 4:12.69 | 99095 | 118063
    6 | 26:14.14 | 4:48.02 | 118064 | 139665
    7 | 31:02.16 | 4:01.57 | 139666 | 157797
    8 | 35:03.73 | 4:39.00 | 157798 | 178722
    9 | 39:42.73 | 5:09.01 | 178723 | 201898
    10 | 44:51.74 | 4:59.27 | 201899 | 224350
    11 | 49:51.26 | 6:39.25 | 224351 | 254300
    12 | 56:30.51 | 3:04.72 | 254301 | 268172


    Range status and errors

    Selected range

    Filename C:\mm\Sheryl Crow\2010 - 100 Miles From Memphis [B0014507-02]\Sheryl Crow - 100 Miles From Memphis.wav

    Peak level 98.1 %
    Extraction speed 9.7 X
    Range quality 99.9 %
    Test CRC 1C71260C
    Copy CRC 1C71260C
    Copy OK

    No errors occurred


    AccurateRip summary

    Track 1 accurately ripped (confidence 200) [805459DB] (AR v2)
    Track 2 accurately ripped (confidence 200) [C4BFE6CA] (AR v2)
    Track 3 accurately ripped (confidence 200) [7D7B70D8] (AR v2)
    Track 4 accurately ripped (confidence 200) [76E3BF19] (AR v2)
    Track 5 accurately ripped (confidence 200) [C645EC15] (AR v2)
    Track 6 accurately ripped (confidence 200) [32B470E9] (AR v2)
    Track 7 accurately ripped (confidence 200) [1FDBFE0B] (AR v2)
    Track 8 accurately ripped (confidence 200) [B6D70085] (AR v2)
    Track 9 accurately ripped (confidence 200) [30D723A5] (AR v2)
    Track 10 accurately ripped (confidence 200) [482C7347] (AR v2)
    Track 11 accurately ripped (confidence 200) [FF6FEC16] (AR v2)
    Track 12 accurately ripped (confidence 200) [79592116] (AR v2)

    All tracks accurately ripped

    End of status report
    [свернуть]

    Лог проверки качества

    AUDIOCHECKER v2.0 beta (build 457) - by Dester - opdester@freemail.hu
    ~~~~~~~~~~~~~~~~~~~~~~~~~~~~~~~~~~
    -=== НЕ РЕДАКТИРУЙТЕ ЭТОТ ФАЙЛ! ===-

    Путь: ...\2010 - 100 Miles From Memphis [B0014507-02]

    1 -=- Sheryl Crow - 100 Miles From Memphis.flac -=- CDDA (100%)

    44722292
    [свернуть]

    Спектр частот

    [свернуть]

    Скачать Sheryl Crow - 100 Miles From Memphis

    Скрытый текст (вы должны войти под своим логином или зарегистрироваться и иметь 5 сообщение(ий)):
    У вас нет прав чтобы видеть скрытый текст, содержащийся здесь.
    [свернуть]

  8. 5 пользователя(ей) сказали cпасибо:

    aheron (17.02.2019), Coroed (07.02.2019), Puharik (07.02.2019), Riddler (07.02.2019), vlad56 (08.02.2019)

  9. #14
    Бывалый Array Аватар для sergy
    Регистрация
    14.11.2018
    Адрес
    Земля
    Сообщений
    495
    Сказал(а) спасибо
    3,157
    Поблагодарили 2,261 раз(а)
    в 460 сообщениях
    Онлайн
    4 Дней 10 ч 28 мин
    В среднем
    1 мин 57 сек

    Thumbs up 2013 - Feels Like Home


    2013 - Sheryl Crow - Feels Like Home




    Исполнитель/Artist: Sheryl Crow
    Альбом/Album: Feels Like Home
    Год/Year: 2013
    Жанр/Genre: Country, country rock, southern rock, traditional country
    Страна/Country: Германия
    Рекорд-лейбл/Record label: Sea Gayle Music
    Номер в каталоге/Catalogue #: 9362-49433-1
    Формат/Format: Free Lossless Audio Codec (*.flac)
    Качество/Quality: Lossless
    Тип рипа/RIP Type: image+.cue
    Продолжительность/Length: 00:44:09
    Источник/Source: Собственный рип
    Размер/Size: 351 MB

    Сканы в комплекте

    Треклист

    01. Shotgun [0:03:14.50]
    02. Easy [0:04:12.44]
    03. Give It To Me [0:03:57.72]
    04. We Ought Be Drinkin' [0:03:52.07]
    05. Callin' Me When I'm Lonely [0:03:25.29]
    06. Waterproof Mascara [0:03:32.34]
    07. Crazy Ain't Original [0:03:17.53]
    08. Nobody's Business [0:03:34.55]
    09. Homesick [0:04:05.26]
    10. Homecoming Queen [0:03:24.46]
    11. Best Of Times [0:03:19.24]
    12. Stay At Home Mother [0:04:11.67]
    [свернуть]



    Исполнители/Performers

    Sheryl Crow - lead vocals, acoustic guitar, background vocals
    Perry Coleman - vocals
    Ashley Monroe, Tania Hancheroff, Wes Hightower - background vocals
    Samuel Bacco - vibraphone
    J.T. Corenflos, Jedd Hughes, Richard Bennett, Tom Bukovac - electric guitar
    Brad Paisley - slide guitar
    Dan Dugmore, Paul Franklin - pedal steel
    Eric Darken - percussion
    David Davidson, Karen Winkelmann, Pamela Sixfin, Wei Tsun Chang - violin
    Chris Farrell - viola
    Tony Harrell - keyboards
    Aubrey Haynie - fiddle, mandolin
    Jim Hoke - harmonica
    Charlie Judge - accordion, keyboards, string arrangements
    Anthony LaMarchina, Sarighani Reist - cello
    Greg Morrow - drums
    Ilya Toshinsky - dobro, mandolin
    Jeff Trott - acoustic guitar, electric guitar, lap steel
    Glenn Worf - bass
    [свернуть]

    EAC лог

    Exact Audio Copy V1.2 from 12. August 2016

    EAC extraction logfile from 1. March 2017, 22:06

    Sheryl Crow / Feels Like Home

    Used drive : PLEXTOR DVDR PX-716A Adapter: 1 ID: 0

    Read mode : Secure
    Utilize accurate stream : Yes
    Defeat audio cache : Yes
    Make use of C2 pointers : No

    Read offset correction : 30
    Overread into Lead-In and Lead-Out : No
    Fill up missing offset samples with silence : Yes
    Delete leading and trailing silent blocks : No
    Null samples used in CRC calculations : Yes
    Used interface : Native Win32 interface for Win NT & 2000

    Used output format : User Defined Encoder
    Selected bitrate : 1024 kBit/s
    Quality : High
    Add ID3 tag : No
    Command line compressor : C:\Program Files (x86)\Exact Audio Copy\FLAC\FLAC.EXE
    Additional command line options : -6 -V -T "ARTIST=%artist%" -T "TITLE=%title%" -T "ALBUM=%albumtitle%" -T "DATE=%year%" -T "TRACKNUMBER=%tracknr%" -T "GENRE=%genre%" -T "COMMENT=%comment%" -T "BAND=%albuminterpret%" -T "ALBUMARTIST=%albuminterpret%" -T "COMPOSER=%composer%" %haslyrics%--tag-from-file=LYRICS="%lyricsfile%"%haslyrics% -T "DISCNUMBER=%cdnumber%" -T "TOTALDISCS=%totalcds%" -T "TOTALTRACKS=%numtracks%" %hascover%--picture="%coverfile%"%hascover% %source% -o %dest%


    TOC of the extracted CD

    Track | Start | Length | Start sector | End sector
    ---------------------------------------------------------
    1 | 0:00.00 | 3:14.50 | 0 | 14599
    2 | 3:14.50 | 4:12.44 | 14600 | 33543
    3 | 7:27.19 | 3:57.72 | 33544 | 51390
    4 | 11:25.16 | 3:52.07 | 51391 | 68797
    5 | 15:17.23 | 3:25.29 | 68798 | 84201
    6 | 18:42.52 | 3:32.34 | 84202 | 100135
    7 | 22:15.11 | 3:17.53 | 100136 | 114963
    8 | 25:32.64 | 3:34.55 | 114964 | 131068
    9 | 29:07.44 | 4:05.26 | 131069 | 149469
    10 | 33:12.70 | 3:24.46 | 149470 | 164815
    11 | 36:37.41 | 3:19.24 | 164816 | 179764
    12 | 39:56.65 | 4:11.67 | 179765 | 198656


    Range status and errors

    Selected range

    Filename C:\mm\Sheryl Crow\2013 - Feels Like Home [9362-49433-1]\Sheryl Crow - Feels Like Home.wav

    Peak level 99.9 %
    Extraction speed 3.8 X
    Range quality 100.0 %
    Test CRC 91A169A6
    Copy CRC 91A169A6
    Copy OK

    No errors occurred


    AccurateRip summary

    Track 1 accurately ripped (confidence 37) [9B8C1418] (AR v2)
    Track 2 accurately ripped (confidence 37) [99806DF4] (AR v2)
    Track 3 accurately ripped (confidence 37) [0B48D5FF] (AR v2)
    Track 4 accurately ripped (confidence 37) [BDA57F51] (AR v2)
    Track 5 accurately ripped (confidence 38) [63CAFB10] (AR v2)
    Track 6 accurately ripped (confidence 37) [DD36BC49] (AR v2)
    Track 7 accurately ripped (confidence 37) [4AFA5CF6] (AR v2)
    Track 8 accurately ripped (confidence 36) [01A8CD51] (AR v2)
    Track 9 accurately ripped (confidence 37) [89B0423F] (AR v2)
    Track 10 accurately ripped (confidence 37) [6A3D85CD] (AR v2)
    Track 11 accurately ripped (confidence 37) [717BC2B9] (AR v2)
    Track 12 accurately ripped (confidence 36) [FC8FF9B3] (AR v2)

    All tracks accurately ripped

    End of status report

    ---- CUETools DB Plugin V2.1.6

    [CTDB TOCID: sEt5bNt3fW2btQZ7HbG6bLfcXqk-] found
    Submit result: already submitted
    Track | CTDB Status
    1 | (211/211) Accurately ripped
    2 | (210/211) Accurately ripped
    3 | (211/211) Accurately ripped
    4 | (211/211) Accurately ripped
    5 | (210/211) Accurately ripped
    6 | (211/211) Accurately ripped
    7 | (210/211) Accurately ripped
    8 | (211/211) Accurately ripped
    9 | (210/211) Accurately ripped
    10 | (210/211) Accurately ripped
    11 | (210/211) Accurately ripped
    12 | (209/211) Accurately ripped
    [свернуть]

    Лог проверки качества

    AUDIOCHECKER v2.0 beta (build 457) - by Dester - opdester@freemail.hu
    ~~~~~~~~~~~~~~~~~~~~~~~~~~~~~~~~~~
    -=== НЕ РЕДАКТИРУЙТЕ ЭТОТ ФАЙЛ! ===-

    Путь: ...\2013 - Feels Like Home [9362-49433-1]

    1 -=- Sheryl Crow - Feels Like Home.flac -=- CDDA (99%)

    110666100
    [свернуть]

    Спектр частот

    [свернуть]

    Скачать Sheryl Crow - Feels Like Home

    Скрытый текст (вы должны войти под своим логином или зарегистрироваться и иметь 5 сообщение(ий)):
    У вас нет прав чтобы видеть скрытый текст, содержащийся здесь.
    [свернуть]

  10. 5 пользователя(ей) сказали cпасибо:

    aheron (17.02.2019), Coroed (07.02.2019), Puharik (07.02.2019), Riddler (07.02.2019), vlad56 (08.02.2019)

  11. #15
    Супер модератор Array Аватар для aheron
    Регистрация
    11.06.2018
    Сообщений
    556
    Сказал(а) спасибо
    4,295
    Поблагодарили 3,226 раз(а)
    в 513 сообщениях
    Онлайн
    1 Нед 3 Дней 23 ч 55 мин 40 сек
    В среднем
    4 мин 51 сек
    Sheryl Crow - Sheryl Crow (1996)





    Performer: Sheryl Crow
    Album: Sheryl Crow
    Label: A&M Records. Made in US.
    Catalog #: 31454 0587 2 IN02
    Style: Alternative Rock, Country Rock, Pop Rock
    Year: 1996
    Format: FLAC (image + .cue)
    Bitrate: lossless
    Covers: in archive
    Amount of tracks: 13
    Size ZIP: ~ 550 mb

    ••• Tracklist •••

    01. Sheryl Crow - Maybe Angels [4:54]
    02. Sheryl Crow - A Change Would Do You Good [3:50]
    03. Sheryl Crow - Home [4:51]
    04. Sheryl Crow - Sweet Rosalyn [4:00]
    05. Sheryl Crow - If It Makes You Happy [5:23]
    06. Sheryl Crow - Redemption Day [4:26]
    07. Sheryl Crow - Hard To Make A Stand [3:08]
    08. Sheryl Crow - Every Day Is A Winding Road [4:17]
    09. Sheryl Crow - Love Is A Good Thing [4:43]
    10. Sheryl Crow - Oh Marie [3:32]
    11. Sheryl Crow - Superstar [4:58]
    12. Sheryl Crow - The Book [4:44]
    13. Sheryl Crow - Ordinary Morning [3:56]
    --------------------------
    Total time: [56:41]


    Notes:
    ==========
    Made in the U.S.A.
    Printed in the U.S.A.
    ℗ & © 1996 A&M Records, Inc.
    Mastered at Gateway Mastering Studios, Portland, Maine.
    [свернуть]

    ••• Log EAC + Log auCDtect + Dynamic Range Meter + Spectrum •••

    Exact Audio Copy V1.0 beta 3 from 29. August 2011

    EAC extraction logfile from 11. March 2013, 18:27

    Sheryl Crow / Sheryl Crow

    Used drive : Optiarc DVD RW AD-5280S Adapter: 0 ID: 2

    Read mode : Secure
    Utilize accurate stream : Yes
    Defeat audio cache : Yes
    Make use of C2 pointers : No

    Read offset correction : 48
    Overread into Lead-In and Lead-Out : No
    Fill up missing offset samples with silence : Yes
    Delete leading and trailing silent blocks : No
    Null samples used in CRC calculations : Yes
    Used interface : Installed external ASPI interface

    Used output format : Internal WAV Routines
    Sample format : 44.100 Hz; 16 Bit; Stereo


    TOC of the extracted CD

    Track | Start | Length | Start sector | End sector
    ---------------------------------------------------------
    1 | 0:00.00 | 4:54.20 | 0 | 22069
    2 | 4:54.20 | 3:49.65 | 22070 | 39309
    3 | 8:44.10 | 4:50.55 | 39310 | 61114
    4 | 13:34.65 | 3:59.72 | 61115 | 79111
    5 | 17:34.62 | 5:23.30 | 79112 | 103366
    6 | 22:58.17 | 4:26.33 | 103367 | 123349
    7 | 27:24.50 | 3:07.55 | 123350 | 137429
    8 | 30:32.30 | 4:17.17 | 137430 | 156721
    9 | 34:49.47 | 4:42.55 | 156722 | 177926
    10 | 39:32.27 | 3:31.53 | 177927 | 193804
    11 | 43:04.05 | 4:57.60 | 193805 | 216139
    12 | 48:01.65 | 4:44.37 | 216140 | 237476
    13 | 52:46.27 | 3:55.40 | 237477 | 255141


    Range status and errors

    Selected range

    Filename D:\flacmusic.ru rip by ротарь\Sheryl Crow - Sheryl Crow.wav

    Peak level 99.4 %
    Extraction speed 4.1 X
    Range quality 100.0 %
    Test CRC 52C3EE2A
    Copy CRC 52C3EE2A
    Copy OK

    No errors occurred


    AccurateRip summary

    Track 1 accurately ripped (confidence 38) [17992B82] (AR v2)
    Track 2 accurately ripped (confidence 38) [3A36F750] (AR v2)
    Track 3 accurately ripped (confidence 38) [CBED4950] (AR v2)
    Track 4 accurately ripped (confidence 39) [6D08A4FB] (AR v2)
    Track 5 accurately ripped (confidence 39) [35C70F9C] (AR v2)
    Track 6 accurately ripped (confidence 38) [76BA0DEA] (AR v2)
    Track 7 accurately ripped (confidence 40) [BBB4FEE4] (AR v2)
    Track 8 accurately ripped (confidence 38) [737F501B] (AR v2)
    Track 9 accurately ripped (confidence 40) [8B58AB86] (AR v2)
    Track 10 accurately ripped (confidence 39) [FBA49E83] (AR v2)
    Track 11 accurately ripped (confidence 38) [589A4F08] (AR v2)
    Track 12 accurately ripped (confidence 35) [79DF5923] (AR v2)
    Track 13 accurately ripped (confidence 37) [AD840885] (AR v2)

    All tracks accurately ripped

    End of status report

    ==== Log checksum 24958AB75D9434A3153967961349F2A0FEB1379D5F6EBADCE9 2AF64A59598700 ====

    ////////////////////////////////////////////////////////////////////////////////

    -----------------------

    DON'T MODIFY THIS FILE

    -----------------------

    PERFORMER: auCDtect Task Manager, ver. 1.6.0 RC1 build 1.6.0.1
    Copyright (c) 2008-2010 y-soft. All rights reserved
    http://y-soft.org

    ANALYZER: auCDtect: CD records authenticity detector, version 0.8.2
    Copyright (c) 2004 Oleg Berngardt. All rights reserved.
    Copyright (c) 2004 Alexander Djourik. All rights reserved.


    FILE: Sheryl Crow - Sheryl Crow.flac
    Size: 362366003 Hash: 06A744377A87D782C803269269550EA6 Accuracy: -m0
    Conclusion: CDDA 99%
    Signature: 8DA54DC07970973E5A1304B4B93DCCA322AF4F09

    //////////////////////////////////////////////////////////////////////////////

    foobar2000 1.3.2 / Dynamic Range Meter 1.1.1
    log date: 2014-07-22 00:54:58

    --------------------------------------------------------------------------------
    Analyzed: Sheryl Crow / Sheryl Crow
    --------------------------------------------------------------------------------

    DR Peak RMS Duration Track
    --------------------------------------------------------------------------------
    DR8 -0.05 dB -9.89 dB 4:54 01-Maybe Angels
    DR8 -0.05 dB -9.30 dB 3:50 02-A Change Would Do You Good
    DR8 -0.18 dB -10.16 dB 4:51 03-Home
    DR9 -0.05 dB -10.03 dB 4:00 04-Sweet Rosalyn
    DR8 -0.05 dB -9.53 dB 5:23 05-If It Makes You Happy
    DR9 -0.18 dB -12.03 dB 4:26 06-Redemption Day
    DR8 -0.18 dB -9.65 dB 3:08 07-Hard To Make A Stand
    DR8 -0.52 dB -9.68 dB 4:17 08-Every Day Is A Winding Road
    DR9 -0.05 dB -10.54 dB 4:43 09-Love Is A Good Thing
    DR9 -0.05 dB -10.06 dB 3:32 10-Oh Marie
    DR8 -0.18 dB -9.16 dB 4:58 11-Superstar
    DR9 -0.05 dB -11.00 dB 4:44 12-The Book
    DR8 -0.05 dB -10.51 dB 3:56 13-Ordinary Morning
    --------------------------------------------------------------------------------

    Number of tracks: 13
    Official DR value: DR8

    Samplerate: 44100 Hz
    Channels: 2
    Bits per sample: 16
    Bitrate: 852 kbps
    Codec: FLAC
    ================================================== ==============================

    ////////////////////////////////////////////////////////////////////////////////

    [свернуть]

    Альбом "Sheryl Crow" вышел в 1996 году, легко поднявшись в Тор 10 США (6 строка в чарте Billboard 200) и заняв 12 место в канадском рейтинге альбомов. В полном согласии с названием, диск включал гораздо более интимные, исповедальные песни. Международная армия поклонников классического рока отнеслась к этой работе с большим вниманием. Только в Америке релиз разошелся почти трехмиллионным тиражом.
    Sheryl Crow - Home



    Скрытый текст (вы должны войти под своим логином или зарегистрироваться и иметь 5 сообщение(ий)):
    У вас нет прав чтобы видеть скрытый текст, содержащийся здесь.

  12. 4 пользователя(ей) сказали cпасибо:

    Coroed (29.03.2019), Puharik (29.03.2019), sergy (02.07.2019), Старец (29.03.2019)

Страница 2 из 2 ПерваяПервая 12

Информация о теме

Пользователи, просматривающие эту тему

Эту тему просматривают: 1 (пользователей: 0 , гостей: 1)

Социальные закладки

Социальные закладки

Ваши права

  • Вы не можете создавать новые темы
  • Вы не можете отвечать в темах
  • Вы не можете прикреплять вложения
  • Вы не можете редактировать свои сообщения
  •