Страница 1 из 2 12 ПоследняяПоследняя
Показано с 1 по 10 из 11

Тема: Whitesnake

  1. #1
    Супер модератор Array Аватар для aheron
    Регистрация
    11.06.2018
    Сообщений
    444
    Сказал(а) спасибо
    3,917
    Поблагодарили 2,604 раз(а)
    в 400 сообщениях
    Онлайн
    1 Нед 2 Дней 2 ч 7 мин 43 сек
    В среднем
    4 мин 10 сек

    Whitesnake






    Whitesnake (в переводе с англ. — «белая змея») — британо-американская рок-группа, играющая хард-рок с блюзовыми элементами, созданная в 1977 году Дэвидом Ковердэйлом, бывшим вокалистом Deep Purple. В связи с тем, что Дэвид Ковердейл был связан контрактом, запрещающим ему участие в группах, он был вынужден с момента распада «DEEP PURPLE» выпускать сольные альбомы с аккомпанирующим составом, т. н. «DAVID COVERDALE'S WHITESNAKE». С ним он выпустил два альбома — «White Snake» (1977) и «Northwinds» (1978), продюсером которых стал небезызвестный Роджер Гловер. В создании группы, наряду с Ковердэйлом, участвовали Берни Марсден — гитара, Мики Муди — гитара, Нил Мюррей — бас, Дэвид Даул — барабаны и Брайен Джонсон — клавишные. Впрочем, Джонсон вскоре был заменен на Пита Солея (ex-«PROCOL HARUM»). В записи дебютного 7-дюймового EP «Snakebite» (1978) группы принимал участие также бывший клавишник «DEEP PURPLE» Джон Лорд. Продюсером всех альбомов, начиная с дебютного и до 1984 года был Мартин Бирч, продюсировавший последние альбомы «DEEP PURPLE» с участием Ковердэйла. Параллельно работе с «WHITESNAKE», Бирч также продюсировал альбомы «RAINBOW» (сольного проекта бывшего коллеги Кавердейла по «DEEP PURPLE» Ричи Блэкмора), «BLACK SABBATH», «IRON MAIDEN» и других.

  2. 4 пользователя(ей) сказали cпасибо:

    Lupus (14.03.2019), Puharik (14.03.2019), Riddler (15.03.2019), vlad56 (16.03.2019)

  3. #2
    Супер модератор Array Аватар для aheron
    Регистрация
    11.06.2018
    Сообщений
    444
    Сказал(а) спасибо
    3,917
    Поблагодарили 2,604 раз(а)
    в 400 сообщениях
    Онлайн
    1 Нед 2 Дней 2 ч 7 мин 43 сек
    В среднем
    4 мин 10 сек
    Whitesnake - Snakebite (1978)





    Performer: Whitesnake
    Album: Snakebite
    Label: Geffen Records. Made in US.
    Catalog #: 9 24174-2
    Style: Blues Rock, Hard Rock
    Year: 1978 (Reissue 198?)
    Format: FLAC (image + .cue)
    Bitrate: lossless
    Covers: in archive
    Amount of tracks: 8
    Size ZIP: ~ 320 mb

    ••• Tracklist •••

    01. Whitesnake - Come On [3:33]
    02. Whitesnake - Bloody Mary [3:20]
    03. Whitesnake - Ain't No Love In The Heart Of The City [5:13]
    04. Whitesnake - Steal Away [4:20]
    05. Whitesnake - Keep On Giving Me Love [5:18]
    06. Whitesnake - Queen Of Hearts [5:18]
    07. Whitesnake - Only My Soul [4:36]
    08. Whitesnake - Breakdown [?]
    --------------------------
    Total time: [36:52]


    Notes:
    =====================
    Ⓟ Ⓒ 1978 The David Geffen Company
    David Coverdale's first albumn with his new group after Deep Purple broke up.
    Several tracks produced and guest musical appearance by Roger Glover.
    Manufactured By – DADC – DIDX-2537
    [свернуть]

    ••• Log EAC + Log auCDtect + Dynamic Range Meter + Spectrum •••

    Exact Audio Copy V1.1 from 23. June 2015

    EAC extraction logfile from 21. July 2015, 1:22

    Whitesnake / Snakebite

    Used drive : SONY BD RW BDX-S600U Adapter: 1 ID: 2

    Read mode : Secure
    Utilize accurate stream : Yes
    Defeat audio cache : Yes
    Make use of C2 pointers : No

    Read offset correction : 48
    Overread into Lead-In and Lead-Out : No
    Fill up missing offset samples with silence : Yes
    Delete leading and trailing silent blocks : No
    Null samples used in CRC calculations : Yes
    Used interface : Native Win32 interface for Win NT & 2000

    Used output format : User Defined Encoder
    Selected bitrate : 768 kBit/s
    Quality : High
    Add ID3 tag : No
    Command line compressor : C:\Program Files (x86)\Exact Audio Copy\FLAC\FLAC.EXE
    Additional command line options : -6 -V -T "ARTIST=%artist%" -T "TITLE=%title%" -T "ALBUM=%albumtitle%" -T "DATE=%year%" -T "TRACKNUMBER=%tracknr%" -T "GENRE=%genre%" -T "COMMENT=%comment%" -T "BAND=%albuminterpret%" -T "ALBUMARTIST=%albuminterpret%" -T "COMPOSER=%composer%" %haslyrics%--tag-from-file=LYRICS="%lyricsfile%"%haslyrics% -T "DISCNUMBER=%cdnumber%" -T "TOTALDISCS=%totalcds%" -T "TOTALTRACKS=%numtracks%" %hascover%--picture="%coverfile%"%hascover% %source% -o %dest%


    TOC of the extracted CD

    Track | Start | Length | Start sector | End sector
    ---------------------------------------------------------
    1 | 0:00.00 | 3:33.35 | 0 | 16009
    2 | 3:33.35 | 3:20.07 | 16010 | 31016
    3 | 6:53.42 | 5:13.10 | 31017 | 54501
    4 | 12:06.52 | 4:20.15 | 54502 | 74016
    5 | 16:26.67 | 5:18.10 | 74017 | 97876
    6 | 21:45.02 | 5:17.63 | 97877 | 121714
    7 | 27:02.65 | 4:36.35 | 121715 | 142449
    8 | 31:39.25 | 5:12.50 | 142450 | 165899


    Range status and errors

    Selected range

    Filename D:\Whitesnake Discography\Studio albums\1978. Whitesnake - Snakebite\1978. Whitesnake - Snakebite (Geffen Rec.,9 24174-2,USA)\Whitesnake - Snakebite.wav

    Peak level 98.7 %
    Extraction speed 5.9 X
    Range quality 100.0 %
    Test CRC 3F800939
    Copy CRC 3F800939
    Copy OK

    No errors occurred


    AccurateRip summary

    Track 1 accurately ripped (confidence 13) [F6120A22] (AR v2)
    Track 2 accurately ripped (confidence 13) [12FACDE9] (AR v2)
    Track 3 accurately ripped (confidence 13) [150F5D40] (AR v2)
    Track 4 accurately ripped (confidence 13) [ACD7ACDA] (AR v2)
    Track 5 accurately ripped (confidence 13) [5BEB7BDD] (AR v2)
    Track 6 accurately ripped (confidence 13) [5382D87A] (AR v2)
    Track 7 accurately ripped (confidence 13) [C30E8AA9] (AR v2)
    Track 8 accurately ripped (confidence 13) [FEBFD830] (AR v2)

    All tracks accurately ripped

    End of status report

    ---- CUETools DB Plugin V2.1.6

    [CTDB TOCID: 1g1fD9CFLK7X2xbBE1zCbFnxaz4-] found
    Submit result: 1g1fD9CFLK7X2xbBE1zCbFnxaz4- has been confirmed
    Track | CTDB Status
    1 | (8/8) Accurately ripped
    2 | (8/8) Accurately ripped
    3 | (8/8) Accurately ripped
    4 | (8/8) Accurately ripped
    5 | (8/8) Accurately ripped
    6 | (8/8) Accurately ripped
    7 | (7/8) Accurately ripped
    8 | (8/8) Accurately ripped


    ==== Log checksum DFB6670413EC012B183DF8EC047F7981F7C1407F049FDBB865 FFAB02325BFD18 ====

    ////////////////////////////////////////////////////////////////////////////

    -----------------------

    DON'T MODIFY THIS FILE

    -----------------------

    PERFORMER: auCDtect Task Manager, ver. 1.6.0 RC1 build 1.6.0.1
    Copyright (c) 2008-2010 y-soft. All rights reserved
    http://y-soft.org

    ANALYZER: auCDtect: CD records authenticity detector, version 0.8.2
    Copyright (c) 2004 Oleg Berngardt. All rights reserved.
    Copyright (c) 2004 Alexander Djourik. All rights reserved.


    FILE: Whitesnake - Snakebite.flac
    Size: 236838558 Hash: 5C93350082458CF695FAB12F4AEC4D14 Accuracy: -m0
    Conclusion: CDDA 100%
    Signature: 68E2B10BB265D3A77FA5E49C24261A8D71607853

    //////////////////////////////////////////////////////////////////////////////

    foobar2000 1.3.9 / Dynamic Range Meter 1.1.1
    log date: 2015-11-07 01:58:01

    --------------------------------------------------------------------------------
    Analyzed: Whitesnake / Snakebite
    --------------------------------------------------------------------------------

    DR Peak RMS Duration Track
    --------------------------------------------------------------------------------
    DR13 -0.71 dB -16.12 dB 3:33 01-Come On
    DR13 -0.24 dB -15.08 dB 3:20 02-Bloody Mary
    DR14 -0.74 dB -16.34 dB 5:13 03-Ain't No Love In The Heart Of The City
    DR13 -0.11 dB -15.45 dB 4:20 04-Steal Away
    DR13 -0.73 dB -15.94 dB 5:18 05-Keep On Giving Me Love
    DR12 -0.27 dB -15.15 dB 5:18 06-Queen Of Hearts
    DR12 -1.02 dB -15.70 dB 4:36 07-Only My Soul
    DR12 -0.43 dB -13.70 dB 5:13 08-Breakdown
    --------------------------------------------------------------------------------

    Number of tracks: 8
    Official DR value: DR13

    Samplerate: 44100 Hz
    Channels: 2
    Bits per sample: 16
    Bitrate: 856 kbps
    Codec: FLAC
    ================================================== ==============================

    ///////////////////////////////////////////////////////////////////////////////////

    [свернуть]

    Snakebite - это первый официальный релиз британской хард-рок-группы Whitesnake. Оригинальный EP изначально содержал только четыре трека и был выпущен в Великобритании в июне 1978 года и никогда не издавался в США.
    Whitesnake - Ain't No Love In The Heart Of The City



    Скрытый текст (вы должны войти под своим логином или зарегистрироваться и иметь 5 сообщение(ий)):
    У вас нет прав чтобы видеть скрытый текст, содержащийся здесь.

  4. 5 пользователя(ей) сказали cпасибо:

    Coroed (15.03.2019), Lupus (14.03.2019), Puharik (14.03.2019), Riddler (15.03.2019), vlad56 (16.03.2019)

  5. #3
    Супер модератор Array Аватар для aheron
    Регистрация
    11.06.2018
    Сообщений
    444
    Сказал(а) спасибо
    3,917
    Поблагодарили 2,604 раз(а)
    в 400 сообщениях
    Онлайн
    1 Нед 2 Дней 2 ч 7 мин 43 сек
    В среднем
    4 мин 10 сек
    Whitesnake - Come An' Get It (1981)




    Performer: Whitesnake
    Album: Come An' Get It
    Label: Geffen Records. Made in US.
    Catalog #: 9 24167-2
    Style: Hard Rock, Blues Rock
    Year: 1981 (Reussue 198?)
    Format: FLAC (image + .cue)
    Bitrate: lossless
    Covers: in archive
    Amount of tracks: 10
    Size ZIP: ~ 339 mb

    ••• Tracklist •••

    01. Whitesnake - Come An' Get It [3:58]
    02. Whitesnake - Hot Stuff [3:22]
    03. Whitesnake - Don't Break My Heart Again [4:04]
    04. Whitesnake - Lonely Days, Lonely Nights [4:16]
    05. Whitesnake - Wine, Women An' Song [3:45]
    06. Whitesnake - Child Of Babylon [4:49]
    07. Whitesnake - Would I Lie To You [4:29]
    08. Whitesnake - Girl [3:55]
    09. Whitesnake - Hit An' Run [3:23]
    10. Whitesnake - Till The Day I Die [4:27]
    --------------------------
    Total time: [40:27]

    Credits:
    ===================
    David Coverdale – vocals
    Micky Moody – guitar, backing vocals
    Bernie Marsden – guitar, backing vocals
    Jon Lord – keyboards
    Neil Murray – bass guitar
    Ian Paice – drums

    Notes:
    =====================
    Ⓟ Ⓒ 1981 The David Geffen Company
    Released - 11 April 1981
    Recorded - July and September 1980, January 1981
    Studio - Startling Studios, Tittenhurst Park, Ascot, England
    Producer – Martin Birch
    [свернуть]

    ••• Log EAC + Log auCDtect + Dynamic Range Meter + Spectrum •••

    Exact Audio Copy V1.1 from 23. June 2015

    EAC extraction logfile from 21. July 2015, 0:16

    Whitesnake / Come An' Get It

    Used drive : SONY BD RW BDX-S600U Adapter: 1 ID: 2

    Read mode : Secure
    Utilize accurate stream : Yes
    Defeat audio cache : Yes
    Make use of C2 pointers : No

    Read offset correction : 48
    Overread into Lead-In and Lead-Out : No
    Fill up missing offset samples with silence : Yes
    Delete leading and trailing silent blocks : No
    Null samples used in CRC calculations : Yes
    Used interface : Native Win32 interface for Win NT & 2000

    Used output format : User Defined Encoder
    Selected bitrate : 768 kBit/s
    Quality : High
    Add ID3 tag : No
    Command line compressor : C:\Program Files (x86)\Exact Audio Copy\FLAC\FLAC.EXE
    Additional command line options : -6 -V -T "ARTIST=%artist%" -T "TITLE=%title%" -T "ALBUM=%albumtitle%" -T "DATE=%year%" -T "TRACKNUMBER=%tracknr%" -T "GENRE=%genre%" -T "COMMENT=%comment%" -T "BAND=%albuminterpret%" -T "ALBUMARTIST=%albuminterpret%" -T "COMPOSER=%composer%" %haslyrics%--tag-from-file=LYRICS="%lyricsfile%"%haslyrics% -T "DISCNUMBER=%cdnumber%" -T "TOTALDISCS=%totalcds%" -T "TOTALTRACKS=%numtracks%" %hascover%--picture="%coverfile%"%hascover% %source% -o %dest%


    TOC of the extracted CD

    Track | Start | Length | Start sector | End sector
    ---------------------------------------------------------
    1 | 0:00.00 | 3:58.35 | 0 | 17884
    2 | 3:58.35 | 3:22.07 | 17885 | 33041
    3 | 7:20.42 | 4:03.38 | 33042 | 51304
    4 | 11:24.05 | 4:16.17 | 51305 | 70521
    5 | 15:40.22 | 3:44.50 | 70522 | 87371
    6 | 19:24.72 | 4:48.38 | 87372 | 109009
    7 | 24:13.35 | 4:28.52 | 109010 | 129161
    8 | 28:42.12 | 3:55.23 | 129162 | 146809
    9 | 32:37.35 | 3:23.37 | 146810 | 162071
    10 | 36:00.72 | 4:26.60 | 162072 | 182081


    Range status and errors

    Selected range

    Filename D:\Whitesnake Discography\Studio albums\1981. Whitesnake - Come An' Get It\1981. Whitesnake - Come An' Get It (Geffen,9 24167-2,USA)\Whitesnake - Come An' Get It.wav

    Peak level 97.5 %
    Extraction speed 6.1 X
    Range quality 100.0 %
    Test CRC E7703AC3
    Copy CRC E7703AC3
    Copy OK

    No errors occurred


    AccurateRip summary

    Track 1 accurately ripped (confidence 7) [724CBE44] (AR v2)
    Track 2 accurately ripped (confidence 7) [49864508] (AR v2)
    Track 3 accurately ripped (confidence 7) [E2933A5F] (AR v2)
    Track 4 accurately ripped (confidence 7) [AD50AF1F] (AR v2)
    Track 5 accurately ripped (confidence 7) [44972A73] (AR v2)
    Track 6 accurately ripped (confidence 7) [BCD1503E] (AR v2)
    Track 7 accurately ripped (confidence 7) [EF6DD3C6] (AR v2)
    Track 8 accurately ripped (confidence 7) [8621C02E] (AR v2)
    Track 9 accurately ripped (confidence 7) [352C36AD] (AR v2)
    Track 10 accurately ripped (confidence 7) [3BF107DF] (AR v2)

    All tracks accurately ripped

    End of status report

    ---- CUETools DB Plugin V2.1.6

    [CTDB TOCID: 7ct0954Nl9d86I99yxY7EXPSmb4-] found
    Submit result: 7ct0954Nl9d86I99yxY7EXPSmb4- has been confirmed
    Track | CTDB Status
    1 | (13/13) Accurately ripped
    2 | (13/13) Accurately ripped
    3 | (13/13) Accurately ripped
    4 | (13/13) Accurately ripped
    5 | (13/13) Accurately ripped
    6 | (13/13) Accurately ripped
    7 | (13/13) Accurately ripped
    8 | (13/13) Accurately ripped
    9 | (13/13) Accurately ripped
    10 | (13/13) Accurately ripped


    ==== Log checksum B499CCDEAAC0844F64DE2259FB6C097B167570625FB14C62A9 F5A82208086EAE ====

    ///////////////////////////////////////////////////////////////////////////////

    -----------------------

    DON'T MODIFY THIS FILE

    -----------------------

    PERFORMER: auCDtect Task Manager, ver. 1.6.0 RC1 build 1.6.0.1
    Copyright (c) 2008-2010 y-soft. All rights reserved
    http://y-soft.org

    ANALYZER: auCDtect: CD records authenticity detector, version 0.8.2
    Copyright (c) 2004 Oleg Berngardt. All rights reserved.
    Copyright (c) 2004 Alexander Djourik. All rights reserved.


    FILE: Whitesnake - Come An' Get It.flac
    Size: 268713750 Hash: 9CF92688FEF5CBBBE788D513DF137713 Accuracy: -m0
    Conclusion: CDDA 100%
    Signature: 23DAFD30C7904E17133F881B4F1A3C3312CCC643

    /////////////////////////////////////////////////////////////////////////////

    foobar2000 1.3.15 / Dynamic Range Meter 1.1.1
    log date: 2017-05-15 08:02:01

    --------------------------------------------------------------------------------
    Analyzed: Whitesnake / Come An' Get It
    --------------------------------------------------------------------------------

    DR Peak RMS Duration Track
    --------------------------------------------------------------------------------
    DR12 -1.61 dB -16.39 dB 3:58 01-Come An' Get It
    DR13 -0.26 dB -15.07 dB 3:22 02-Hot Stuff
    DR13 -0.22 dB -15.22 dB 4:04 03-Don't Break My Heart Again
    DR12 -0.41 dB -15.13 dB 4:16 04-Lonely Days, Lonely Nights
    DR12 -1.09 dB -15.51 dB 3:45 05-Wine, Women An' Song
    DR12 -2.29 dB -17.08 dB 4:49 06-Child Of Babylon
    DR13 -0.62 dB -15.07 dB 4:29 07-Would I Lie To You
    DR14 -0.57 dB -16.40 dB 3:55 08-Girl
    DR12 -1.43 dB -15.33 dB 3:23 09-Hit An' Run
    DR13 -1.08 dB -17.76 dB 4:27 10-Till The Day I Die
    --------------------------------------------------------------------------------

    Number of tracks: 10
    Official DR value: DR13

    Samplerate: 44100 Hz
    Channels: 2
    Bits per sample: 16
    Bitrate: 885 kbps
    Codec: FLAC
    ================================================== ==============================

    ///////////////////////////////////////////////////////////////////////////////

    [свернуть]

    Come an’ Get It — четвёртый студийный альбом группы Whitesnake, выпущенный 11 апреля 1981 года. Альбом достиг второй позиции в национальном чарте, что стало наивысшим чартовым достижением группы на тот момент, первую позицию удерживал альбом «Kings of the Wild Frontier» группы Adam and the Ants, выпущенный ещё в 1980 году. Песни «Don't Break My Heart Again» и «Would I Lie to You» были изданы в качестве синглов, и попали в британский Топ-20.
    Whitesnake - Would I Lie To You



    Скрытый текст (вы должны войти под своим логином или зарегистрироваться и иметь 10 сообщение(ий)):
    У вас нет прав чтобы видеть скрытый текст, содержащийся здесь.


  6. 5 пользователя(ей) сказали cпасибо:

    Coroed (15.03.2019), Lupus (15.03.2019), Puharik (14.03.2019), Riddler (15.03.2019), vlad56 (16.03.2019)

  7. #4
    Супер модератор Array Аватар для aheron
    Регистрация
    11.06.2018
    Сообщений
    444
    Сказал(а) спасибо
    3,917
    Поблагодарили 2,604 раз(а)
    в 400 сообщениях
    Онлайн
    1 Нед 2 Дней 2 ч 7 мин 43 сек
    В среднем
    4 мин 10 сек
    Whitesnake - Whitesnake (1987) [France, Carrere]





    Performer: Whitesnake
    Album: Whitesnake
    Label: Carrere. Made in France.
    Catalog #: CA 802, 96.443
    Style: Hard Rock
    Year: 1987
    Format: FLAC (image + .cue)
    Bitrate: lossless
    Covers: in archive
    Amount of tracks: 9
    Size ZIP: ~ 306 mb

    ••• Tracklist •••

    01. Whitesnake - Crying In The Rain [5:36]
    02. Whitesnake - Bad Boys [4:07]
    03. Whitesnake - Still Of The Night [6:40]
    04. Whitesnake - Here I Go Again [4:35]
    05. Whitesnake - Give Me All Your Love [3:30]
    06. Whitesnake - Is This Love [4:45]
    07. Whitesnake - Children Of The Night [4:23]
    08. Whitesnake - Straight For The Heart [3:40]
    09. Whitesnake - Don't Turn Away [5:08]
    --------------------------
    Total time: [42:24]

    Credits:
    =================
    Bass – Neil Murray
    Composed By – Bernie Marsden (tracks: 10), David Coverdale, John Sykes (tracks: 1 to 4, 6 to 9, 11)
    Design [Cover] – Hugh Syme
    Drums – Aynsley Dunbar
    Guitar [Special Guest] – Adrian Vandenberg
    Guitar, Vocals – John Sykes
    Keyboards [Special Guest] – Bill Cuomo, Don Airey
    Mastered By – Greg Fulginiti
    Producer – Keith Olsen, Mike Stone
    Vocals – David Coverdale

    Notes:
    ==============
    Comes with 8-page booklet, including lyrics.
    Produced for Pogologo Productions.

    (P) 1987 Whitesnake Productions Overseas
    Made in France.
    [свернуть]

    ••• Log EAC + Log auCDtect + Dynamic Range Meter + Spectrum •••

    Exact Audio Copy V1.0 beta 1 from 15. November 2010

    EAC extraction logfile from 31. August 2014, 20:42

    Whitesnake / Whitesnake

    Used drive : MATSHITADVD-RAM UJ8A0AS Adapter: 0 ID: 1

    Read mode : Secure
    Utilize accurate stream : Yes
    Defeat audio cache : Yes
    Make use of C2 pointers : No

    Read offset correction : 102
    Overread into Lead-In and Lead-Out : No
    Fill up missing offset samples with silence : Yes
    Delete leading and trailing silent blocks : No
    Null samples used in CRC calculations : Yes
    Used interface : Native Win32 interface for Win NT & 2000

    Used output format : Internal WAV Routines
    Sample format : 44.100 Hz; 16 Bit; Stereo


    TOC of the extracted CD

    Track | Start | Length | Start sector | End sector
    ---------------------------------------------------------
    1 | 0:00.33 | 5:35.70 | 33 | 25227
    2 | 5:36.28 | 4:07.05 | 25228 | 43757
    3 | 9:43.33 | 6:40.07 | 43758 | 73764
    4 | 16:23.40 | 4:35.28 | 73765 | 94417
    5 | 20:58.68 | 3:29.55 | 94418 | 110147
    6 | 24:28.48 | 4:44.47 | 110148 | 131494
    7 | 29:13.20 | 4:23.35 | 131495 | 151254
    8 | 33:36.55 | 3:39.45 | 151255 | 167724
    9 | 37:16.25 | 5:07.65 | 167725 | 190814


    Range status and errors

    Selected range

    Filename C:\Users\Alex\Music\Новая папка\Whitesnake - Whitesnake.wav

    Peak level 97.4 %
    Extraction speed 0.1 X
    Range quality 100.0 %
    Test CRC 80CE1C2A
    Copy CRC 80CE1C2A
    Copy OK

    No errors occurred


    AccurateRip summary

    Track 1 accurately ripped (confidence 8) [065B7CE2]
    Track 2 accurately ripped (confidence 8) [FDF35F51]
    Track 3 accurately ripped (confidence 8) [A61C84F9]
    Track 4 accurately ripped (confidence 8) [36797876]
    Track 5 accurately ripped (confidence 8) [5D7420E0]
    Track 6 accurately ripped (confidence 8) [6546B791]
    Track 7 accurately ripped (confidence 8) [84F1D564]
    Track 8 accurately ripped (confidence 8) [B66E1CF9]
    Track 9 accurately ripped (confidence 8) [B7CC4900]

    All tracks accurately ripped

    End of status report

    ==== Log checksum 5997AE4A04901962ECD983F2681C6863F760A9236C71230FF7 22F42E8BA004C2 ====

    ////////////////////////////////////////////////////////////////////////////////

    -----------------------

    DON'T MODIFY THIS FILE

    -----------------------

    PERFORMER: auCDtect Task Manager, ver. 1.6.0 RC1 build 1.6.0.1
    Copyright (c) 2008-2010 y-soft. All rights reserved
    http://y-soft.org

    ANALYZER: auCDtect: CD records authenticity detector, version 0.8.2
    Copyright (c) 2004 Oleg Berngardt. All rights reserved.
    Copyright (c) 2004 Alexander Djourik. All rights reserved.


    FILE: Whitesnake - Whitesnake.flac
    Size: 296067082 Hash: 328579343B3C0CC585925FAFA531AB82 Accuracy: -m0
    Conclusion: CDDA 100%
    Signature: B80F525069B1C60C74D2482A60A6D0AB644A6F1F

    //////////////////////////////////////////////////////////////////////////////////

    foobar2000 1.3.8 / Dynamic Range Meter 1.1.1
    log date: 2015-04-13 00:58:16

    --------------------------------------------------------------------------------
    Analyzed: Whitesnake / Whitesnake
    --------------------------------------------------------------------------------

    DR Peak RMS Duration Track
    --------------------------------------------------------------------------------
    DR11 -0.29 dB -13.92 dB 5:36 01-Crying In The Rain
    DR11 -0.23 dB -13.83 dB 4:07 02-Bad Boys
    DR11 -1.14 dB -14.35 dB 6:40 03-Still Of The Night
    DR11 -2.21 dB -16.04 dB 4:35 04-Here I Go Again
    DR11 -0.25 dB -12.96 dB 3:30 05-Give Me All Your Love
    DR12 -0.45 dB -15.01 dB 4:45 06-Is This Love
    DR11 -1.31 dB -13.66 dB 4:23 07-Children Of The Night
    DR11 -1.02 dB -13.44 dB 3:40 08-Straight For The Heart
    DR12 -0.83 dB -14.80 dB 5:08 09-Don't Turn Away
    --------------------------------------------------------------------------------

    Number of tracks: 9
    Official DR value: DR11

    Samplerate: 44100 Hz
    Channels: 2
    Bits per sample: 16
    Bitrate: 931 kbps
    Codec: FLAC
    ================================================== ==============================

    ///////////////////////////////////////////////////////////////////////////////

    [свернуть]

    Whitesnake (в Европе выпущен под названием 1987) — седьмой альбом группы Whitesnake. Самый коммерчески успешный альбом группы, ставший 8 раз платиновым, добравшийся до 2 места в Billboard 200 и 8 места в английском чарте альбомов. Вышедший альбом стал самым успешным в истории Whitesnake, сочетая коммерчески успешную мелодичность и довольно жёсткую ритмическую основу. Альбом занял 28-ую позицию в рейтинге «100 лучших рок-альбомов всех времён» по версии журнала Classic Rock.
    Whitesnake - Is This Love



    Скрытый текст (вы должны войти под своим логином или зарегистрироваться и иметь 5 сообщение(ий)):
    У вас нет прав чтобы видеть скрытый текст, содержащийся здесь.

  8. 6 пользователя(ей) сказали cпасибо:

    Coroed (15.03.2019), fdvigor (16.03.2019), Lupus (15.03.2019), Puharik (16.03.2019), Riddler (15.03.2019), vlad56 (16.03.2019)

  9. #5
    Супер модератор Array Аватар для aheron
    Регистрация
    11.06.2018
    Сообщений
    444
    Сказал(а) спасибо
    3,917
    Поблагодарили 2,604 раз(а)
    в 400 сообщениях
    Онлайн
    1 Нед 2 Дней 2 ч 7 мин 43 сек
    В среднем
    4 мин 10 сек
    Whitesnake - Slip Of The Tongue (1989) [Carrere, France]





    Performer: Whitesnake
    Album: Slip Of The Tongue
    Label: Carrere. Made in France.
    Catalog #: 96 876
    Style: Hard Rock
    Year: 1989
    Format: FLAC (image + .cue)
    Bitrate: lossless
    Covers: in archive
    Amount of tracks: 10
    Size ZIP: ~ 456 mb

    ••• Tracklist •••

    01. Whitesnake - Slip Of The Tongue [5:20]
    02. Whitesnake - Cheap An' Nasty [3:29]
    03. Whitesnake - Fool For Your Loving [4:12]
    04. Whitesnake - Now You're Gone [4:12]
    05. Whitesnake - Kittens Got Claws [5:02]
    06. Whitesnake - Wings Of The Storm [5:01]
    07. Whitesnake - The Deeper The Love [4:23]
    08. Whitesnake - Judgement Day [5:17]
    09. Whitesnake - Slow Poke Music [4:00]
    10. Whitesnake - Sailing Ships [6:03]
    --------------------------
    Total time: [46:58]


    Credits:
    ===============
    Bass – Rudy Sarzo
    Drums – Tommy Aldridge
    Guitar – Adrian Vandenberg, Steve Vai
    Vocals – David Coverdale
    Engineer – Keith Olsen, Mike Clink
    Producer – Keith Olsen, Mike Clink

    Notes:
    =====================
    Ⓟ 1989 The David Geffen Company
    [свернуть]

    ••• Log EAC + Log auCDtect + Dynamic Range Meter + Spectrum •••

    Exact Audio Copy V1.1 from 23. June 2015

    EAC extraction logfile from 16. January 2016, 23:41

    Whitesnake / Slip Of The Tongue

    Used drive : SONY BD RW BDX-S600U Adapter: 1 ID: 2

    Read mode : Secure
    Utilize accurate stream : Yes
    Defeat audio cache : Yes
    Make use of C2 pointers : No

    Read offset correction : 48
    Overread into Lead-In and Lead-Out : No
    Fill up missing offset samples with silence : Yes
    Delete leading and trailing silent blocks : No
    Null samples used in CRC calculations : Yes
    Used interface : Native Win32 interface for Win NT & 2000

    Used output format : User Defined Encoder
    Selected bitrate : 768 kBit/s
    Quality : High
    Add ID3 tag : No
    Command line compressor : C:\Program Files (x86)\Exact Audio Copy\FLAC\FLAC.EXE
    Additional command line options : -6 -V -T "ARTIST=%artist%" -T "TITLE=%title%" -T "ALBUM=%albumtitle%" -T "DATE=%year%" -T "TRACKNUMBER=%tracknr%" -T "GENRE=%genre%" -T "COMMENT=%comment%" -T "BAND=%albuminterpret%" -T "ALBUMARTIST=%albuminterpret%" -T "COMPOSER=%composer%" %haslyrics%--tag-from-file=LYRICS="%lyricsfile%"%haslyrics% -T "DISCNUMBER=%cdnumber%" -T "TOTALDISCS=%totalcds%" -T "TOTALTRACKS=%numtracks%" %hascover%--picture="%coverfile%"%hascover% %source% -o %dest%


    TOC of the extracted CD

    Track | Start | Length | Start sector | End sector
    ---------------------------------------------------------
    1 | 0:00.33 | 5:20.05 | 33 | 24037
    2 | 5:20.38 | 3:29.25 | 24038 | 39737
    3 | 8:49.63 | 4:11.65 | 39738 | 58627
    4 | 13:01.53 | 4:12.02 | 58628 | 77529
    5 | 17:13.55 | 5:01.55 | 77530 | 100159
    6 | 22:15.35 | 5:01.35 | 100160 | 122769
    7 | 27:16.70 | 4:22.60 | 122770 | 142479
    8 | 31:39.55 | 5:16.53 | 142480 | 166232
    9 | 36:56.33 | 3:59.70 | 166233 | 184227
    10 | 40:56.28 | 6:02.47 | 184228 | 211424


    Range status and errors

    Selected range

    Filename D:\Whitesnake Discography\Studio albums\1989. Whitesnake - Slip Of The Tongue\1989. Whitesnake - Slip Of The Tongue (Carrere, 96 876,France)\Whitesnake - Slip Of The Tongue.wav

    Peak level 100.0 %
    Extraction speed 6.4 X
    Range quality 99.9 %
    Test CRC 72243455
    Copy CRC 72243455
    Copy OK

    No errors occurred


    AccurateRip summary

    Track 1 accurately ripped (confidence 2) [6513BF64] (AR v2)
    Track 2 accurately ripped (confidence 2) [0DF3B8E1] (AR v2)
    Track 3 accurately ripped (confidence 2) [CBDB3B11] (AR v2)
    Track 4 accurately ripped (confidence 2) [74774E03] (AR v2)
    Track 5 accurately ripped (confidence 2) [63A321C6] (AR v2)
    Track 6 accurately ripped (confidence 2) [EAA4E4E1] (AR v2)
    Track 7 accurately ripped (confidence 2) [A229C58E] (AR v2)
    Track 8 accurately ripped (confidence 2) [A74AE727] (AR v2)
    Track 9 accurately ripped (confidence 2) [6AA0C71A] (AR v2)
    Track 10 accurately ripped (confidence 2) [F7FF2DEB] (AR v2)

    All tracks accurately ripped

    End of status report

    ==== Log checksum 331754969BED895525D530AFBFB9B42DE62C0043FA82DEB121 D20CB9B361C25E ====

    //////////////////////////////////////////////////////////////////////////////////

    -----------------------

    DON'T MODIFY THIS FILE

    -----------------------

    PERFORMER: auCDtect Task Manager, ver. 1.6.0 RC1 build 1.6.0.1
    Copyright (c) 2008-2010 y-soft. All rights reserved
    http://y-soft.org

    ANALYZER: auCDtect: CD records authenticity detector, version 0.8.2
    Copyright (c) 2004 Oleg Berngardt. All rights reserved.
    Copyright (c) 2004 Alexander Djourik. All rights reserved.


    FILE: Whitesnake - Slip Of The Tongue.flac
    Size: 325956176 Hash: E234F8B8C3FA8BB963712FA1FCB88637 Accuracy: -m0
    Conclusion: CDDA 99%
    Signature: 7F8B29905CBFDE1703D58E7B271EAF28181FD3DC

    ////////////////////////////////////////////////////////////////////////////////

    foobar2000 1.3.9 / Dynamic Range Meter 1.1.1
    log date: 2016-02-23 20:34:37

    --------------------------------------------------------------------------------
    Analyzed: Whitesnake / Slip Of The Tongue
    --------------------------------------------------------------------------------

    DR Peak RMS Duration Track
    --------------------------------------------------------------------------------
    DR13 -0.07 dB -14.94 dB 5:20 01-Slip Of The Tongue
    DR13 -0.42 dB -15.86 dB 3:29 02-Cheap An' Nasty
    DR12 -0.38 dB -14.56 dB 4:12 03-Fool For Your Loving
    DR13 -0.50 dB -15.23 dB 4:12 04-Now You're Gone
    DR13 -0.54 dB -15.10 dB 5:02 05-Kittens Got Claws
    DR13 0.00 dB -14.24 dB 5:01 06-Wings Of The Storm
    DR12 -0.78 dB -14.50 dB 4:23 07-The Deeper The Love
    DR13 -0.58 dB -15.38 dB 5:17 08-Judgement Day
    DR13 -0.54 dB -15.36 dB 4:00 09-Slow Poke Music
    DR12 -1.51 dB -16.73 dB 6:03 10-Sailing Ships
    --------------------------------------------------------------------------------

    Number of tracks: 10
    Official DR value: DR13

    Samplerate: 44100 Hz
    Channels: 2
    Bits per sample: 16
    Bitrate: 925 kbps
    Codec: FLAC
    ================================================== ==============================

    ////////////////////////////////////////////////////////////////////////////////////

    [свернуть]

    Slip of the Tongue - восьмой студийный альбом британской хард-рок-группы Whitesnake, выпущенный в 1989 году. Альбом достиг пика под номером 10 как в чарте альбомов Великобритании, так и на американском Billboard 200.
    Whitesnake - Fool For Your Loving



    Скрытый текст (вы должны войти под своим логином или зарегистрироваться и иметь 5 сообщение(ий)):
    У вас нет прав чтобы видеть скрытый текст, содержащийся здесь.

  10. 5 пользователя(ей) сказали cпасибо:

    Coroed (15.03.2019), Lupus (15.03.2019), Puharik (16.03.2019), Riddler (15.03.2019), vlad56 (16.03.2019)

  11. #6
    Супер модератор Array Аватар для aheron
    Регистрация
    11.06.2018
    Сообщений
    444
    Сказал(а) спасибо
    3,917
    Поблагодарили 2,604 раз(а)
    в 400 сообщениях
    Онлайн
    1 Нед 2 Дней 2 ч 7 мин 43 сек
    В среднем
    4 мин 10 сек
    Whitesnake - Lovehunter (1979) [Edition 1982]





    Performer: Whitesnake
    Album: Lovehunter
    Label: EMI United Kingdom. Made in Holland.
    Catalog #: 0777 7 52053 2 9
    Style: Hard Rock
    Year: 1979 (Edition 1982)
    Format: FLAC (image + .cue)
    Bitrate: lossless
    Covers: in archive
    Amount of tracks: 10
    Size ZIP: ~ 289 mb

    ••• Tracklist •••

    01. Whitesnake - Long Way From Home [4:57]
    02. Whitesnake - Walking In The Shadow Of The Blues [4:25]
    03. Whitesnake - Help Me Thro' The Day [4:40]
    04. Whitesnake - Medicine Man [4:00]
    05. Whitesnake - You 'N' Me [3:30]
    06. Whitesnake - Mean Business [3:49]
    07. Whitesnake - Love Hunter [5:39]
    08. Whitesnake - Outlaw [4:04]
    09. Whitesnake - Rock 'N' Roll Women [4:46]
    10. Whitesnake - We Wish You Well [1:35]
    --------------------------
    Total time: [41:23]

    Personnel:
    =================
    David Coverdale – lead (all but 8) and backing vocals
    Micky Moody – guitars, slide guitar, backing vocals
    Bernie Marsden – guitars, backing and lead (8) vocals
    Jon Lord – keyboards
    Neil Murray – bass guitar
    Dave Dowle – drums
    [свернуть]

    ••• Log EAC + Log auCDtect + Dynamic Range Meter + Spectrum •••

    Exact Audio Copy V1.0 beta 3 from 29. August 2011

    Отчёт EAC об извлечении, выполненном 11. марта 2013, 13:02

    Whitesnake / Lovehunter

    Дисковод: Optiarc DVD RW AD-5280S Adapter: 2 ID: 1

    Режим чтения : Достоверность
    Использование точного потока : Да
    Отключение кэша аудио : Да
    Использование указателей C2 : Нет

    Коррекция смещения при чтении : 48
    Способность читать области Lead-in и Lead-out : Нет
    Заполнение пропущенных сэмплов тишиной : Да
    Удаление блоков с тишиной в начале и конце : Нет
    При вычислениях CRC использовались нулевые сэмплы : Да
    Интерфейс : Установленный внешний ASPI-интерфейс

    Выходной формат : Внутренние WAV-операции
    Формат сэмплов : 44.100 Гц; 16 бит; стерео


    TOC извлечённого CD

    Трек | Старт | Длительность | Начальный сектор | Конечный сектор
    ---------------------------------------------------------------------
    1 | 0:00.33 | 4:56.55 | 33 | 22287
    2 | 4:57.13 | 4:24.42 | 22288 | 42129
    3 | 9:21.55 | 4:39.40 | 42130 | 63094
    4 | 14:01.20 | 3:59.63 | 63095 | 81082
    5 | 18:01.08 | 3:30.07 | 81083 | 96839
    6 | 21:31.15 | 3:48.60 | 96840 | 113999
    7 | 25:20.00 | 5:39.05 | 114000 | 139429
    8 | 30:59.05 | 4:03.68 | 139430 | 157722
    9 | 35:02.73 | 4:45.47 | 157723 | 179144
    10 | 39:48.45 | 1:34.68 | 179145 | 186262


    Характеристики диапазона извлечения и сообщения об ошибках

    Выбранный диапазон

    Имя файла D:\rip-flacmusic.ru\Whitesnake - Lovehunter.wav

    Пиковый уровень 87.9 %
    Скорость извлечения 3.7 X
    Качество диапазона 100.0 %
    CRC теста F331D91C
    CRC копии F331D91C
    Копирование... OK

    Ошибок не произошло


    AccurateRip: сводка

    Трек 1 : извлечено точно (доверие 10) [A6560DE1] (AR v1)
    Трек 2 : извлечено точно (доверие 10) [3F9C82A4] (AR v1)
    Трек 3 : извлечено точно (доверие 10) [66555347] (AR v1)
    Трек 4 : извлечено точно (доверие 10) [BDCE5402] (AR v1)
    Трек 5 : извлечено точно (доверие 10) [45B85E4E] (AR v1)
    Трек 6 : извлечено точно (доверие 9) [DC74B75E] (AR v1)
    Трек 7 : извлечено точно (доверие 2) [B79FF015] (AR v2)
    Трек 8 : извлечено точно (доверие 2) [EF1D7C56] (AR v2)
    Трек 9 : извлечено точно (доверие 2) [66139862] (AR v2)
    Трек 10 : извлечено точно (доверие 2) [294A9124] (AR v2)

    Все треки извлечены точно

    Конец отчёта

    ==== Контрольная сумма отчёта 89D57594D8BF881DFADDD9EAB25374C118CD409C5F5AE72008 1DEF7DAB58D402 ====

    ///////////////////////////////////////////////////////////////////////////////

    -----------------------

    DON'T MODIFY THIS FILE

    -----------------------

    PERFORMER: auCDtect Task Manager, ver. 1.6.0 RC1 build 1.6.0.1
    Copyright (c) 2008-2010 y-soft. All rights reserved
    http://y-soft.org

    ANALYZER: auCDtect: CD records authenticity detector, version 0.8.2
    Copyright (c) 2004 Oleg Berngardt. All rights reserved.
    Copyright (c) 2004 Alexander Djourik. All rights reserved.


    FILE: Whitesnake - Lovehunter.flac
    Size: 282513084 Hash: 142077BA6DFCF7C1D1F2A9299701B1AB Accuracy: -m0
    Conclusion: CDDA 100%
    Signature: FE076C6763CDB62296BCA3715B9BD92145265C85

    ///////////////////////////////////////////////////////////////////////////////

    foobar2000 1.3 / Dynamic Range Meter 1.1.1
    log date: 2014-01-24 02:05:47

    --------------------------------------------------------------------------------
    Analyzed: Whitesnake / Lovehunter
    --------------------------------------------------------------------------------

    DR Peak RMS Duration Track
    --------------------------------------------------------------------------------
    DR13 -1.48 dB -16.25 dB 4:57 01-Long Way From Home
    DR13 -1.11 dB -16.70 dB 4:25 02-Walking In The Shadow Of The Blues
    DR13 -2.81 dB -18.54 dB 4:40 03-Help Me Thro' The Day
    DR13 -1.35 dB -17.06 dB 4:00 04-Medicine Man
    DR13 -2.70 dB -17.21 dB 3:30 05-You 'N' Me
    DR13 -2.08 dB -15.99 dB 3:49 06-Mean Business
    DR13 -1.19 dB -17.24 dB 5:39 07-Love Hunter
    DR13 -1.48 dB -16.59 dB 4:04 08-Outlaw
    DR13 -1.54 dB -16.34 dB 4:46 09-Rock 'N' Roll Women
    DR12 -3.71 dB -21.70 dB 1:35 10-We Wish You Well
    --------------------------------------------------------------------------------

    Number of tracks: 10
    Official DR value: DR13

    Samplerate: 44100 Hz
    Channels: 2
    Bits per sample: 16
    Bitrate: 910 kbps
    Codec: FLAC
    ================================================== ==============================

    ///////////////////////////////////////////////////////////////////////////////

    [свернуть]

    Lovehunter — второй студийный альбом группы Whitesnake, записанный и выпущенный в 1979 года. Для записи альбома группа отправилась в Clearwell Castle, Глостершир, где воспользовалась услугами мобильной студии Rolling Stones. Сведение альбома проходило в лондонской студии Central Recorders Studio and Sauna. Альбом достиг двадцать девятой позиции в UK Albums Chart. Открывающая альбом песня «Long Way from Home» была выпущена в качестве сингла. Сингл достиг 55 позиции в английском чарте.
    Whitesnake - Long Way From Home



    Скрытый текст (вы должны войти под своим логином или зарегистрироваться и иметь 5 сообщение(ий)):
    У вас нет прав чтобы видеть скрытый текст, содержащийся здесь.

  12. 5 пользователя(ей) сказали cпасибо:

    Coroed (15.03.2019), Lupus (15.03.2019), Puharik (16.03.2019), Riddler (15.03.2019), vlad56 (16.03.2019)

  13. #7
    Супер модератор Array Аватар для aheron
    Регистрация
    11.06.2018
    Сообщений
    444
    Сказал(а) спасибо
    3,917
    Поблагодарили 2,604 раз(а)
    в 400 сообщениях
    Онлайн
    1 Нед 2 Дней 2 ч 7 мин 43 сек
    В среднем
    4 мин 10 сек
    Whitesnake - The Best Of Whitesnake (1982) [Edition 1990]





    Performer: Whitesnake
    Album: The Best Of Whitesnake
    Label: Underdog Records. Made in France.
    Catalog #: 97.892
    Style: Hard Rock
    Year: 1982 (Edition 1990)
    Format: FLAC (image + .cue)
    Bitrate: lossless
    Covers: in archive
    Amount of tracks: 15
    Size ZIP: ~ 478 mb

    ••• Tracklist •••

    01. Whitesnake - Walking In The Shadow Of The Blues [4:26]
    02. Whitesnake - Trouble [4:48]
    03. Whitesnake - Lie Down (A Modern Love Song) [3:13]
    04. Whitesnake - Sweet Talker [3:40]
    05. Whitesnake - Love Hunter [5:39]
    06. Whitesnake - Don't Break My Heart Again [4:03]
    07. Whitesnake - Ain't No Love In The Heart Of The City [6:10]
    08. Whitesnake - Fool For Your Loving [4:18]
    09. Whitesnake - Take Me With You [4:49]
    10. Whitesnake - We Wish You Well [1:32]
    11. Whitesnake - Here I Go Again [5:12]
    12. Whitesnake - Crying In The Rain [6:03]
    13. Whitesnake - Victim Of Love [3:32]
    14. Whitesnake - Saints And Sinners [4:24]
    15. Whitesnake - Rock N' Roll Angels [4:07]
    --------------------------
    Total time: [01:05:56]

    Credits:
    ==================
    Bass – Neil Murray
    Drums – Ian Paice
    Guitar – Bernie Marsden, Micky Moody
    Keyboards – Jon Lord
    Producer – Martin Birch
    Vocals – David Coverdale

    Notes:
    =====================
    All tracks produced by Martin Birch for Sunburst Records.

    ⓒ 1979/1980/1981/1982/Sunburst
    [свернуть]

    ••• Log EAC + Log auCDtect + Dynamic Range Meter + Spectrum •••

    Exact Audio Copy V1.0 beta 3 from 29. August 2011

    EAC extraction logfile from 9. November 2012, 9:33

    Whitesnake / The Best Of Whitesnake

    Used drive : MATSHITADVD-RAM UJ-850S Adapter: 1 ID: 0

    Read mode : Secure
    Utilize accurate stream : Yes
    Defeat audio cache : Yes
    Make use of C2 pointers : No

    Read offset correction : 102
    Overread into Lead-In and Lead-Out : No
    Fill up missing offset samples with silence : Yes
    Delete leading and trailing silent blocks : No
    Null samples used in CRC calculations : Yes
    Used interface : Native Win32 interface for Win NT & 2000

    Used output format : User Defined Encoder
    Selected bitrate : 640 kBit/s
    Quality : High
    Add ID3 tag : No
    Command line compressor : C:\Program Files\Exact Audio Copy\Flac\flac.exe
    Additional command line options : -V -8 -T "Date=%year%" -T "Genre=%genre%" %source%


    TOC of the extracted CD

    Track | Start | Length | Start sector | End sector
    ---------------------------------------------------------
    1 | 0:00.33 | 4:25.62 | 33 | 19969
    2 | 4:26.20 | 4:47.63 | 19970 | 41557
    3 | 9:14.08 | 3:12.60 | 41558 | 56017
    4 | 12:26.68 | 3:39.55 | 56018 | 72497
    5 | 16:06.48 | 5:39.30 | 72498 | 97952
    6 | 21:46.03 | 4:03.12 | 97953 | 116189
    7 | 25:49.15 | 6:09.43 | 116190 | 143907
    8 | 31:58.58 | 4:18.15 | 143908 | 163272
    9 | 36:16.73 | 4:49.00 | 163273 | 184947
    10 | 41:05.73 | 1:32.25 | 184948 | 191872
    11 | 42:38.23 | 5:11.42 | 191873 | 215239
    12 | 47:49.65 | 6:03.15 | 215240 | 242479
    13 | 53:53.05 | 3:31.50 | 242480 | 258354
    14 | 57:24.55 | 4:24.30 | 258355 | 278184
    15 | 61:49.10 | 4:07.15 | 278185 | 296724


    Range status and errors

    Selected range

    Filename C:\Users\815815\Desktop\Новая папка\Whitesnake - The Best Of Whitesnake.wav

    Peak level 100.0 %
    Extraction speed 2.6 X
    Range quality 100.0 %
    Test CRC 9A2578C1
    Copy CRC 9A2578C1
    Copy OK

    No errors occurred


    AccurateRip summary

    Track 1 accurately ripped (confidence 3) [7E237086] (AR v2)
    Track 2 accurately ripped (confidence 3) [DBE076BE] (AR v2)
    Track 3 accurately ripped (confidence 4) [03AD8828] (AR v2)
    Track 4 accurately ripped (confidence 4) [28B5D906] (AR v2)
    Track 5 accurately ripped (confidence 4) [C9151370] (AR v2)
    Track 6 accurately ripped (confidence 3) [38FC5459] (AR v2)
    Track 7 accurately ripped (confidence 3) [F90096D6] (AR v2)
    Track 8 accurately ripped (confidence 4) [64C5F721] (AR v2)
    Track 9 accurately ripped (confidence 4) [D259F5B9] (AR v2)
    Track 10 accurately ripped (confidence 4) [0C21E605] (AR v2)
    Track 11 accurately ripped (confidence 3) [E40C422C] (AR v2)
    Track 12 accurately ripped (confidence 3) [68631BED] (AR v2)
    Track 13 accurately ripped (confidence 3) [08DCD831] (AR v2)
    Track 14 accurately ripped (confidence 3) [450BE853] (AR v2)
    Track 15 accurately ripped (confidence 2) [0894AE5A] (AR v2)

    All tracks accurately ripped

    End of status report

    ==== Log checksum 6E0EDE6446E9AA04EC311EAC6C139D2F6868D70A3D9423F9D5 F14B0708EB6FA9 ====

    //////////////////////////////////////////////////////////////////////////////////

    -----------------------

    DON'T MODIFY THIS FILE

    -----------------------

    PERFORMER: auCDtect Task Manager, ver. 1.6.0 RC1 build 1.6.0.1
    Copyright (c) 2008-2010 y-soft. All rights reserved
    http://y-soft.org

    ANALYZER: auCDtect: CD records authenticity detector, version 0.8.2
    Copyright (c) 2004 Oleg Berngardt. All rights reserved.
    Copyright (c) 2004 Alexander Djourik. All rights reserved.


    FILE: Whitesnake - The Best Of Whitesnake.flac
    Size: 487356818 Hash: CE3B6565BC64D7D87400EB379A6BABE9 Accuracy: -m0
    Conclusion: CDDA 100%
    Signature: 06AE52F408E611B4D1DF99250812F7342FBEE804

    /////////////////////////////////////////////////////////////////////////////////////

    foobar2000 1.3 / Dynamic Range Meter 1.1.1
    log date: 2014-03-16 21:02:36

    --------------------------------------------------------------------------------
    Analyzed: Whitesnake / The Best Of Whitesnake
    --------------------------------------------------------------------------------

    DR Peak RMS Duration Track
    --------------------------------------------------------------------------------
    DR12 0.00 dB -13.05 dB 4:26 01-Walking In The Shadow Of The Blues
    DR13 0.00 dB -14.49 dB 4:48 02-Trouble
    DR12 0.00 dB -13.57 dB 3:13 03-Lie Down (A Modern Love Song)
    DR13 0.00 dB -14.12 dB 3:40 04-Sweet Talker
    DR13 0.00 dB -15.35 dB 5:39 05-Love Hunter
    DR12 0.00 dB -13.96 dB 4:03 06-Don't Break My Heart Again
    DR13 0.00 dB -15.56 dB 6:10 07-Ain't No Love In The Heart Of The City
    DR12 -0.01 dB -14.03 dB 4:18 08-Fool For Your Loving
    DR12 -0.78 dB -15.16 dB 4:49 09-Take Me With You
    DR13 0.00 dB -18.29 dB 1:32 10-We Wish You Well
    DR10 0.00 dB -12.87 dB 5:12 11-Here I Go Again
    DR12 0.00 dB -14.16 dB 6:03 12-Crying In The Rain
    DR13 -1.00 dB -15.65 dB 3:32 13-Victim Of Love
    DR11 0.00 dB -12.35 dB 4:24 14-Saints And Sinners
    DR10 -1.40 dB -13.13 dB 4:07 15-Rock N' Roll Angels
    --------------------------------------------------------------------------------

    Number of tracks: 15
    Official DR value: DR12

    Samplerate: 44100 Hz
    Channels: 2
    Bits per sample: 16
    Bitrate: 985 kbps
    Codec: FLAC
    ================================================== ==============================

    ////////////////////////////////////////////////////////////////////////////////

    [свернуть]


    Whitesnake - Don't Break My Heart Again



    Скрытый текст (вы должны войти под своим логином или зарегистрироваться и иметь 5 сообщение(ий)):
    У вас нет прав чтобы видеть скрытый текст, содержащийся здесь.

  14. 3 пользователя(ей) сказали cпасибо:

    Coroed (16.03.2019), Puharik (16.03.2019), vlad56 (17.03.2019)

  15. #8
    Супер модератор Array Аватар для aheron
    Регистрация
    11.06.2018
    Сообщений
    444
    Сказал(а) спасибо
    3,917
    Поблагодарили 2,604 раз(а)
    в 400 сообщениях
    Онлайн
    1 Нед 2 Дней 2 ч 7 мин 43 сек
    В среднем
    4 мин 10 сек
    Whitesnake - Slide It In (1984) [Remastered 1988]





    Performer: Whitesnake
    Album: Slide It In
    Label: EMI Records Ltd. Made in Holland.
    Catalog #: CDP 7 90306 2
    Style: Hard Rock
    Year: 1984 (Remastered 1988)
    Format: FLAC (image + .cue)
    Bitrate: lossless
    Amount of tracks: 10
    Covers: in archive
    Size ZIP: ~ 319 mb

    ••• Tracklist •••

    01. Whitesnake - Gambler [3:57]
    02. Whitesnake - Slide It In [3:21]
    03. Whitesnake - Standing In The Shadow [3:33]
    04. Whitesnake - Give Me More Time [3:41]
    05. Whitesnake - Love Ain't No Stranger [4:14]
    06. Whitesnake - Slow An' Easy [6:10]
    07. Whitesnake - Spit It Out [4:12]
    08. Whitesnake - All Or Nothing [3:34]
    09. Whitesnake - Hungry For Love [3:58]
    10. Whitesnake - Guilty Of Love [3:19]
    --------------------------
    Total time: [39:58]

    Personnel:
    ======================
    David Coverdale – lead vocals
    Mel Galley – guitars, backing vocals
    Micky Moody – guitars
    Colin Hodgkinson – bass
    Jon Lord – keyboards
    Cozy Powell – drums
    John Sykes – guitars on US release
    Neil Murray – bass on US release

    Notes:
    =====================
    Comes with 12-page booklet, including lyrics.
    ⓟ 1984 Original sound recordings made by Whitesnake Productions (Overseas) Ltd. Under licence to EMI Records Ltd.
    Digitally Re-mastered. ⓟ 1988 EMI Records Ltd.
    ⓒ 1988 EMI Records Ltd.
    UK catalog# CZ 88, main catalog# CDP 7 90306 2. F:PM 516
    Made in Holland.
    [свернуть]

    ••• Log EAC + Log auCDtect + Dynamic Range Meter + Spectrum •••

    Exact Audio Copy V1.0 beta 3 from 29. August 2011

    EAC extraction logfile from 13. April 2013, 1:10

    Whitesnake / Slide It In

    Used drive : Optiarc DVD RW AD-5280S Adapter: 2 ID: 1

    Read mode : Secure
    Utilize accurate stream : Yes
    Defeat audio cache : Yes
    Make use of C2 pointers : No

    Read offset correction : 48
    Overread into Lead-In and Lead-Out : No
    Fill up missing offset samples with silence : Yes
    Delete leading and trailing silent blocks : No
    Null samples used in CRC calculations : Yes
    Used interface : Installed external ASPI interface

    Used output format : Internal WAV Routines
    Sample format : 44.100 Hz; 16 Bit; Stereo


    TOC of the extracted CD

    Track | Start | Length | Start sector | End sector
    ---------------------------------------------------------
    1 | 0:00.32 | 3:57.25 | 32 | 17831
    2 | 3:57.57 | 3:20.68 | 17832 | 32899
    3 | 7:18.50 | 3:32.60 | 32900 | 48859
    4 | 10:51.35 | 3:41.07 | 48860 | 65441
    5 | 14:32.42 | 4:13.43 | 65442 | 84459
    6 | 18:46.10 | 6:09.70 | 84460 | 112204
    7 | 24:56.05 | 4:11.72 | 112205 | 131101
    8 | 29:08.02 | 3:34.28 | 131102 | 147179
    9 | 32:42.30 | 3:57.40 | 147180 | 164994
    10 | 36:39.70 | 3:18.40 | 164995 | 179884


    Range status and errors

    Selected range

    Filename C:\rip-flacmusic.ru\Whitesnake - Slide It In.wav

    Peak level 100.0 %
    Extraction speed 3.8 X
    Range quality 100.0 %
    Test CRC 044AFBF9
    Copy CRC 044AFBF9
    Copy OK

    No errors occurred


    AccurateRip summary

    Track 1 accurately ripped (confidence 7) [0A8371B4] (AR v1)
    Track 2 accurately ripped (confidence 7) [135608CE] (AR v1)
    Track 3 accurately ripped (confidence 7) [A9669126] (AR v1)
    Track 4 accurately ripped (confidence 7) [1C03D6F1] (AR v1)
    Track 5 accurately ripped (confidence 7) [6C359CE0] (AR v1)
    Track 6 accurately ripped (confidence 7) [E9A980B3] (AR v1)
    Track 7 accurately ripped (confidence 7) [A52640E9] (AR v1)
    Track 8 accurately ripped (confidence 7) [CEF8CDBF] (AR v1)
    Track 9 accurately ripped (confidence 7) [D002D7D3] (AR v1)
    Track 10 accurately ripped (confidence 7) [52423A93] (AR v1)

    All tracks accurately ripped

    End of status report

    ==== Log checksum 72D136FA6B8832BAB547FE68D5C4F3812536E52D128EC59889 284AC2F8D5276B ====

    //////////////////////////////////////////////////////////////////////////////////

    -----------------------

    DON'T MODIFY THIS FILE

    -----------------------

    PERFORMER: auCDtect Task Manager, ver. 1.6.0 RC1 build 1.6.0.1
    Copyright (c) 2008-2010 y-soft. All rights reserved
    http://y-soft.org

    ANALYZER: auCDtect: CD records authenticity detector, version 0.8.2
    Copyright (c) 2004 Oleg Berngardt. All rights reserved.
    Copyright (c) 2004 Alexander Djourik. All rights reserved.


    FILE: Whitesnake - Slide It In.flac
    Size: 267253548 Hash: 25577B3F2C466DAE5D441E8C6DEB9FA6 Accuracy: -m0
    Conclusion: CDDA 100%
    Signature: F1B6EEA6992FC9677A2372A5CB0FD1CD2213F079

    /////////////////////////////////////////////////////////////////////////////////

    foobar2000 1.3.5 / Dynamic Range Meter 1.1.1
    log date: 2014-12-09 14:54:13

    --------------------------------------------------------------------------------
    Analyzed: Whitesnake / Slide It In
    --------------------------------------------------------------------------------

    DR Peak RMS Duration Track
    --------------------------------------------------------------------------------
    DR14 -0.60 dB -16.82 dB 3:57 01-Gambler
    DR14 -0.79 dB -16.31 dB 3:21 02-Slide It In
    DR14 0.00 dB -16.40 dB 3:33 03-Standing In The Shadow
    DR13 -1.82 dB -16.60 dB 3:41 04-Give Me More Time
    DR14 -1.01 dB -17.45 dB 4:14 05-Love Ain't No Stranger
    DR15 -0.76 dB -18.34 dB 6:10 06-Slow An' Easy
    DR14 -0.25 dB -16.83 dB 4:12 07-Spit It Out
    DR15 -0.18 dB -17.65 dB 3:34 08-All Or Nothing
    DR14 -1.54 dB -17.00 dB 3:58 09-Hungry For Love
    DR13 -1.02 dB -16.96 dB 3:19 10-Guilty Of Love
    --------------------------------------------------------------------------------

    Number of tracks: 10
    Official DR value: DR14

    Samplerate: 44100 Hz
    Channels: 2
    Bits per sample: 16
    Bitrate: 891 kbps
    Codec: FLAC
    ================================================== ==============================

    ///////////////////////////////////////////////////////////////////////////////////

    [свернуть]



    Slide It In — шестой студийный альбом группы Whitesnake, вышедший в 1984 году, по сертификации RIAA дважды платиновый (1992), поднявшийся до 40 места в Billboard 200 и до 9 места в британском чарте альбомов[1]. Последний альбом группы с «классическим» логотипом Whitesnake на обложке. Записи альбома предшествовали перемены в составе группы, не в последнюю очередь связанные с тем, что лидер группы Дэвид Ковердейл, решил несколько изменить стиль группы, сделав его более коммерчески выгодным, с большим тяготением к хард-року.
    Whitesnake - Love Ain't No Stranger



    Скрытый текст (вы должны войти под своим логином или зарегистрироваться и иметь 10 сообщение(ий)):
    У вас нет прав чтобы видеть скрытый текст, содержащийся здесь.

  16. 4 пользователя(ей) сказали cпасибо:

    Coroed (16.03.2019), Puharik (16.03.2019), Riddler (17.03.2019), vlad56 (17.03.2019)

  17. #9
    Супер модератор Array Аватар для aheron
    Регистрация
    11.06.2018
    Сообщений
    444
    Сказал(а) спасибо
    3,917
    Поблагодарили 2,604 раз(а)
    в 400 сообщениях
    Онлайн
    1 Нед 2 Дней 2 ч 7 мин 43 сек
    В среднем
    4 мин 10 сек
    Whitesnake - Good To Be Bad (2008)





    Performer: Whitesnake
    Album: Good To Be Bad
    Label: SPV GmbH/Steamhammer. Made in Germany.
    Catalog #: SPV 98132 CD
    Style: Hard Rock
    Year: 2008
    Format: FLAC (image + .cue)
    Bitrate: lossless
    Covers: in archive
    Amount of tracks: 11
    Size ZIP: ~ 585 mb

    ••• Tracklist •••

    01. Whitesnake - Best Years [5:16]
    02. Whitesnake - Can You Hear The Wind Blow [5:04]
    03. Whitesnake - Call On Me [5:02]
    04. Whitesnake - All I Want All I Need [5:41]
    05. Whitesnake - Good To Be Bad [5:14]
    06. Whitesnake - All For Love [5:14]
    07. Whitesnake - Summer Rain [6:11]
    08. Whitesnake - Lay Down Your Love [6:02]
    09. Whitesnake - A Fool In Love [5:51]
    10. Whitesnake - Got What You Need [4:16]
    11. Whitesnake - Til The End Of Time [5:35]
    --------------------------
    Total time: [59:26]

    Personnel:
    =====================
    David Coverdale – vocals
    Doug Aldrich – guitars
    Reb Beach – guitars
    Timothy Drury – keyboards
    Uriah Duffy – bass
    Chris Frazier – drums

    Notes:
    =====================
    All tracks Recorded at: Casa Dala - Los Angeles & Snakebyte Studios - Lake Tahoe - Nevada.
    Drums Recorded at: Clear Lake Audio - Los Angeles.
    Mixed at: Hook City - Lake Tahoe - Nevada.
    Mastered at: DNA - Los Angeles.
    [свернуть]

    ••• Log EAC + Log auCDtect + Dynamic Range Meter + Spectrum •••

    Exact Audio Copy V1.0 beta 3 from 29. August 2011

    EAC extraction logfile from 13. April 2013, 0:45

    Whitesnake / Good To Be Bad

    Used drive : Optiarc DVD RW AD-5280S Adapter: 2 ID: 1

    Read mode : Secure
    Utilize accurate stream : Yes
    Defeat audio cache : Yes
    Make use of C2 pointers : No

    Read offset correction : 48
    Overread into Lead-In and Lead-Out : No
    Fill up missing offset samples with silence : Yes
    Delete leading and trailing silent blocks : No
    Null samples used in CRC calculations : Yes
    Used interface : Installed external ASPI interface

    Used output format : Internal WAV Routines
    Sample format : 44.100 Hz; 16 Bit; Stereo


    TOC of the extracted CD

    Track | Start | Length | Start sector | End sector
    ---------------------------------------------------------
    1 | 0:00.00 | 5:15.59 | 0 | 23683
    2 | 5:15.59 | 5:04.31 | 23684 | 46514
    3 | 10:20.15 | 5:02.19 | 46515 | 69183
    4 | 15:22.34 | 5:41.20 | 69184 | 94778
    5 | 21:03.54 | 5:14.05 | 94779 | 118333
    6 | 26:17.59 | 5:13.55 | 118334 | 141863
    7 | 31:31.39 | 6:11.06 | 141864 | 169694
    8 | 37:42.45 | 6:01.47 | 169695 | 196816
    9 | 43:44.17 | 5:50.57 | 196817 | 223123
    10 | 49:34.74 | 4:16.28 | 223124 | 242351
    11 | 53:51.27 | 5:35.03 | 242352 | 267479


    Range status and errors

    Selected range

    Filename C:\rip-flacmusic.ru\Whitesnake - Good To Be Bad.wav

    Peak level 100.0 %
    Extraction speed 7.7 X
    Range quality 100.0 %
    Test CRC 6B738DD0
    Copy CRC 6B738DD0
    Copy OK

    No errors occurred


    AccurateRip summary

    Track 1 accurately ripped (confidence 16) [1BBE1DED] (AR v2)
    Track 2 accurately ripped (confidence 16) [4182AF01] (AR v2)
    Track 3 accurately ripped (confidence 16) [4553BE20] (AR v2)
    Track 4 accurately ripped (confidence 16) [175D7FCC] (AR v2)
    Track 5 accurately ripped (confidence 16) [7E7A9943] (AR v2)
    Track 6 accurately ripped (confidence 16) [AEE5E5AC] (AR v2)
    Track 7 accurately ripped (confidence 16) [F9F8A97D] (AR v2)
    Track 8 accurately ripped (confidence 16) [0CA08624] (AR v2)
    Track 9 accurately ripped (confidence 16) [5C5FAF30] (AR v2)
    Track 10 accurately ripped (confidence 16) [8419C121] (AR v2)
    Track 11 accurately ripped (confidence 16) [896B12AE] (AR v2)

    All tracks accurately ripped

    End of status report

    ==== Log checksum DC2D05F56AEE5DEFA99DA785F88B680B520380442AE81C4D59 3A4D00B6929400 ====

    /////////////////////////////////////////////////////////////////////////////

    -----------------------

    DON'T MODIFY THIS FILE

    -----------------------

    PERFORMER: auCDtect Task Manager, ver. 1.6.0 RC1 build 1.6.0.1
    Copyright (c) 2008-2010 y-soft. All rights reserved
    http://y-soft.org

    ANALYZER: auCDtect: CD records authenticity detector, version 0.8.2
    Copyright (c) 2004 Oleg Berngardt. All rights reserved.
    Copyright (c) 2004 Alexander Djourik. All rights reserved.


    FILE: Whitesnake - Good To Be Bad.flac
    Size: 448399614 Hash: 0DF7BBEC7F8C5D32447A659F5394AB4D Accuracy: -m0
    Conclusion: CDDA 100%
    Signature: ADE49A4857EB8878D56EA32632E6871D98D70D76

    //////////////////////////////////////////////////////////////////////////////////

    foobar2000 1.3 / Dynamic Range Meter 1.1.1
    log date: 2014-03-15 00:08:29

    --------------------------------------------------------------------------------
    Analyzed: Whitesnake / Good To Be Bad
    --------------------------------------------------------------------------------

    DR Peak RMS Duration Track
    --------------------------------------------------------------------------------
    DR6 0.00 dB -6.64 dB 5:16 01-Best Years
    DR6 0.00 dB -7.74 dB 5:04 02-Can You Hear The Wind Blow
    DR6 0.00 dB -7.07 dB 5:02 03-Call On Me
    DR6 0.00 dB -7.49 dB 5:41 04-All I Want All I Need
    DR6 0.00 dB -7.63 dB 5:14 05-Good To Be Bad
    DR6 0.00 dB -7.05 dB 5:14 06-All For Love
    DR8 0.00 dB -9.83 dB 6:11 07-Summer Rain
    DR6 0.00 dB -7.30 dB 6:02 08-Lay Down Your Love
    DR6 0.00 dB -7.78 dB 5:51 09-A Fool In Love
    DR6 0.00 dB -7.22 dB 4:16 10-Got What You Need
    DR7 -1.06 dB -10.97 dB 5:35 11-Til The End Of Time
    --------------------------------------------------------------------------------

    Number of tracks: 11
    Official DR value: DR6

    Samplerate: 44100 Hz
    Channels: 2
    Bits per sample: 16
    Bitrate: 1006 kbps
    Codec: FLAC
    ================================================== ==============================

    ////////////////////////////////////////////////////////////////////////////////

    [свернуть]

    Good to Be Bad — десятый альбом группы Whitesnake, вышедший в апреле 2008 года, первый студийный альбом группы после долгого перерыва — для концертного альбома Live: In the Shadow of the Blues, вышедшего в 2006 году, было записано 4 новые композиции, предыдущий студийный альбом группы, Restless Heart (который Ковердэйл планировал выпустить сольно), вышел в 1997 году.
    Whitesnake - Best Years



    Скрытый текст (вы должны войти под своим логином или зарегистрироваться и иметь 5 сообщение(ий)):
    У вас нет прав чтобы видеть скрытый текст, содержащийся здесь.

  18. 4 пользователя(ей) сказали cпасибо:

    Coroed (16.03.2019), Puharik (17.03.2019), Riddler (17.03.2019), vlad56 (17.03.2019)

  19. #10
    Супер модератор Array Аватар для aheron
    Регистрация
    11.06.2018
    Сообщений
    444
    Сказал(а) спасибо
    3,917
    Поблагодарили 2,604 раз(а)
    в 400 сообщениях
    Онлайн
    1 Нед 2 Дней 2 ч 7 мин 43 сек
    В среднем
    4 мин 10 сек
    Whitesnake - Greatest Hits (1994)





    Performer: Whitesnake
    Album: Greatest Hits
    Label: Geffen Records. Made in US.
    Catalog #: GEFD-24620
    Style: Blues Rock, Hard Rock
    Year: 1994 (Compilation)
    Format: FLAC (image + .cue)
    Bitrate: lossless
    Covers: in archive
    Amount of tracks: 14
    Size Zip: 508 mb

    ••• Tracklist •••

    01. Whitesnake - Still Of The Night [6:39]
    02. Whitesnake - Here I Go Again (Previously Unavailable On LP - Radio Mix) [3:54]
    03. Whitesnake - Is This Love [4:44]
    04. Whitesnake - Love Ain't No Stranger [4:18]
    05. Whitesnake - Looking For Love (Previously Unavailable On LP) [6:32]
    06. Whitesnake - Now You're Gone [4:13]
    07. Whitesnake - Slide It In [3:20]
    08. Whitesnake - Slow An' Easy [6:10]
    09. Whitesnake - Judgement Day [5:17]
    10. Whitesnake - You're Gonna Break My Heart Again (Previously Unavailable On LP) [4:11]
    11. Whitesnake - The Deeper The Love [4:23]
    12. Whitesnake - Crying In The Rain [5:37]
    13. Whitesnake - Fool For Your Loving [4:11]
    14. Whitesnake - Sweet Lady Luck (Previously Unavailable On LP) [4:35]
    --------------------------
    Total time: [1:08:01]

    Notes:
    =====================
    ℗ 1994, 1989, 1987, 1984 Geffen Records, Inc.
    © 1994 Geffen Records, Inc.
    Manufactured and Distributed in the United States by Uni Distribution Corp.
    [свернуть]

    ••• Log EAC •••

    Exact Audio Copy V0.99 prebeta 5 from 4. May 2009

    EAC extraction logfile from 8. December 2010, 18:51

    Whitesnake / Greatest Hits

    Used drive : ASUS DRW-1814BLT Adapter: 2 ID: 1

    Read mode : Secure
    Utilize accurate stream : Yes
    Defeat audio cache : Yes
    Make use of C2 pointers : No

    Read offset correction : 6
    Overread into Lead-In and Lead-Out : No
    Fill up missing offset samples with silence : Yes
    Delete leading and trailing silent blocks : No
    Null samples used in CRC calculations : Yes
    Used interface : Native Win32 interface for Win NT & 2000

    Used output format : User Defined Encoder
    Selected bitrate : 1024 kBit/s
    Quality : High
    Add ID3 tag : No
    Command line compressor : C:\Program Files\Exact Audio Copy\FLAC\FLAC.EXE
    Additional command line options : -8 -V -T "ARTIST=%a" -T "TITLE=%t" -T "ALBUM=%g" -T "DATE=%y" -T "TRACKNUMBER=%n" -T "GENRE=%m" -T "COMMENT=%e" %s -o %d

    TOC of the extracted CD

    Track | Start | Length | Start sector | End sector
    ---------------------------------------------------------
    1 | 0:00.32 | 6:38.50 | 32 | 29931
    2 | 6:39.07 | 3:53.45 | 29932 | 47451
    3 | 10:32.52 | 4:44.33 | 47452 | 68784
    4 | 15:17.10 | 4:17.40 | 68785 | 88099
    5 | 19:34.50 | 6:31.62 | 88100 | 117486
    6 | 26:06.37 | 4:12.38 | 117487 | 136424
    7 | 30:19.00 | 3:20.07 | 136425 | 151431
    8 | 33:39.07 | 6:09.38 | 151432 | 179144
    9 | 39:48.45 | 5:16.70 | 179145 | 202914
    10 | 45:05.40 | 4:10.72 | 202915 | 221736
    11 | 49:16.37 | 4:22.48 | 221737 | 241434
    12 | 53:39.10 | 5:36.40 | 241435 | 266674
    13 | 59:15.50 | 4:11.05 | 266675 | 285504
    14 | 63:26.55 | 4:35.02 | 285505 | 306131

    Range status and errors

    Selected range

    Filename D:\Раздачи на torrents.ru\Whitesnake - Greatest Hits\Whitesnake - Greatest Hits.wav

    Peak level 100.0 %
    Range quality 100.0 %
    Test CRC 45C57A83
    Copy CRC 45C57A83
    Copy OK

    No errors occurred

    AccurateRip summary

    Track 1 accurately ripped (confidence 15) [0C8E21B5]
    Track 2 accurately ripped (confidence 15) [B62F6874]
    Track 3 accurately ripped (confidence 15) [4B7E5495]
    Track 4 accurately ripped (confidence 15) [55DA9BEF]
    Track 5 accurately ripped (confidence 15) [D0E0CDD3]
    Track 6 accurately ripped (confidence 15) [3C07EE54]
    Track 7 accurately ripped (confidence 15) [F2FC16BC]
    Track 8 accurately ripped (confidence 15) [CB8F2F24]
    Track 9 accurately ripped (confidence 14) [72006EAB]
    Track 10 accurately ripped (confidence 15) [E3A887E0]
    Track 11 accurately ripped (confidence 15) [4732B27A]
    Track 12 accurately ripped (confidence 15) [8B42AFDF]
    Track 13 accurately ripped (confidence 14) [13F552D2]
    Track 14 accurately ripped (confidence 13) [36FE7607]

    All tracks accurately ripped

    End of status report

    ///////////////////////////////////////////////////////////////////////////////

    -----------------------

    DON'T MODIFY THIS FILE

    -----------------------

    PERFORMER: auCDtect Task Manager, ver. 1.5.1RC6 build 1.5.1.7
    Copyright (c) 2008-2010 y-soft. All rights reserved
    http://y-soft.org

    ANALYZER: auCDtect: CD records authenticity detector, version 0.8.2
    Copyright (c) 2004 Oleg Berngardt. All rights reserved.
    Copyright (c) 2004 Alexander Djourik. All rights reserved.


    FILE: Whitesnake - Greatest Hits.flac
    Size: 502237835 Hash: 734E319652CD1ED5482B074EAE5FB774 Accuracy: -m0
    Conclusion: CDDA 100%
    Signature: 897A62E70FDFAA827CF6AD252E8EE1AC3B542D6C

    ////////////////////////////////////////////////////////////////////////////////

    foobar2000 1.3.9 / Dynamic Range Meter 1.1.1
    log date: 2015-11-26 21:52:36

    --------------------------------------------------------------------------------
    Analyzed: Whitesnake / Greatest Hits
    --------------------------------------------------------------------------------

    DR Peak RMS Duration Track
    --------------------------------------------------------------------------------
    DR8 0.00 dB -9.84 dB 6:39 01-Still Of The Night
    DR9 0.00 dB -10.03 dB 3:54 02-Here I Go Again (Previously Unavailable On LP - Radio Mix)
    DR9 0.00 dB -11.41 dB 4:44 03-Is This Love
    DR9 0.00 dB -11.10 dB 4:18 04-Love Ain't No Stranger
    DR8 0.00 dB -10.32 dB 6:32 05-Looking For Love (Previously Unavailable On LP)
    DR8 0.00 dB -10.35 dB 4:13 06-Now You're Gone
    DR9 0.00 dB -10.48 dB 3:20 07-Slide It In
    DR9 0.00 dB -11.77 dB 6:10 08-Slow An' Easy
    DR8 0.00 dB -9.83 dB 5:17 09-Judgement Day
    DR8 0.00 dB -8.92 dB 4:11 10-You're Gonna Break My Heart Again (Previously Unavailable On LP)
    DR8 0.00 dB -10.21 dB 4:23 11-The Deeper The Love
    DR8 0.00 dB -8.80 dB 5:37 12-Crying In The Rain
    DR8 0.00 dB -9.01 dB 4:11 13-Fool For Your Loving
    DR7 0.00 dB -8.33 dB 4:35 14-Sweet Lady Luck (Previously Unavailable On LP)
    --------------------------------------------------------------------------------

    Number of tracks: 14
    Official DR value: DR8

    Samplerate: 44100 Hz
    Channels: 2
    Bits per sample: 16
    Bitrate: 984 kbps
    Codec: FLAC
    ================================================== ==============================

    //////////////////////////////////////////////////////////////////////////////////

    [url=https://farm1.staticflickr.com/694/23096358150_978e8652a9_o.png][/ur]
    [свернуть]



    Whitesnake - Still Of The Night



    Скрытый текст (вы должны войти под своим логином или зарегистрироваться и иметь 5 сообщение(ий)):
    У вас нет прав чтобы видеть скрытый текст, содержащийся здесь.

  20. 3 пользователя(ей) сказали cпасибо:

    Coroed (17.03.2019), Puharik (17.03.2019), Riddler (17.03.2019)

Страница 1 из 2 12 ПоследняяПоследняя

Информация о теме

Пользователи, просматривающие эту тему

Эту тему просматривают: 1 (пользователей: 0 , гостей: 1)

Социальные закладки

Социальные закладки

Ваши права

  • Вы не можете создавать новые темы
  • Вы не можете отвечать в темах
  • Вы не можете прикреплять вложения
  • Вы не можете редактировать свои сообщения
  •