Страница 2 из 2 ПерваяПервая 12
Показано с 11 по 12 из 12

Тема: Iced Earth

  1. #1
    Супер модератор Array Аватар для aheron
    Регистрация
    11.06.2018
    Сообщений
    520
    Сказал(а) спасибо
    4,132
    Поблагодарили 3,000 раз(а)
    в 475 сообщениях
    Онлайн
    1 Нед 3 Дней 7 ч 38 мин 48 сек
    В среднем
    4 мин 38 сек

    Iced Earth






    Iced Earth (в пер. с англ. — «ледяная земля») — американская хэви-метал-группа. Основана ритм-гитаристом и композитором Джоном Шаффером в 1985 году. За тридцать лет существования группа пережила многочисленные смены состава и некоторые изменения в стиле, от радикального спид/трэш-метал до более мелодичного хэви-метал. Тексты группы посвящены научной фантастике, военной истории и фильмам ужасов. Музыкальный стиль Iced Earth не укладывается в рамки одного жанра, и заметно менялся с частыми сменами состава группы, сохраняя при этом узнаваемое звучание, построенное на ритм-гитаре Джона Шаффера. На ранних демо и первом альбоме группа исполняла спид-метал, немного подражая Judas Priest периода «Painkiller». Последующие альбомы, более тяжёлые и ритмичные, приблизили звучание к трэш-металу. На «Something Wicked» и «Horror Show» Iced Earth явно стали тяготеть к классическому хэви-металу. С приходом Тима Оуэнса музыка ансамбля стала мелодичнее, включив элементы пауэр-метала и хоровой бэк-вокал (до этого на бэк-вокале был Шаффер). В текстах Iced Earth преобладает тема ужасов, мистики и конца света, типичная для хэви-метала. Группа выпустила целый ряд концептуальных альбомов. The Dark Saga основана на комиксах о Спауне. Horror Show представляет собой дайджест из известных сюжетов жанра хоррор (Дракула, Омен, оборотни, мумии). Наконец, два последних альбома представляют собой научно-фантастическую дилогию о войне людей с древней расой сетиан. Сценарий написан самим Джоном Шаффером. Редкое исключение составляет альбом Glorious Burden: в его концепцию легла военная история США и Европы.

  2. 4 пользователя(ей) сказали cпасибо:

    Puharik (18.04.2019), Riddler (19.04.2019), vlad56 (02.05.2019), Старец (18.04.2019)

  3. #11
    Супер модератор Array Аватар для aheron
    Регистрация
    11.06.2018
    Сообщений
    520
    Сказал(а) спасибо
    4,132
    Поблагодарили 3,000 раз(а)
    в 475 сообщениях
    Онлайн
    1 Нед 3 Дней 7 ч 38 мин 48 сек
    В среднем
    4 мин 38 сек
    Iced Earth - The Dark Saga (1996) [Japan]





    Performer: Iced Earth
    Album: The Dark Saga
    Label: Century Media/Victor Entertainment, Inc.. Made in Japan.
    Catalog #: VICP-5754
    Style: Heavy Metal
    Year: 1996
    Format: FLAC (image + .cue)
    Bitrate: lossless
    Covers: in archive
    Amount of tracks: 10
    Size ZIP: ~ 314 mb

    ••• Tracklist •••

    01. Iced Earth - Dark Saga [3:43]
    02. Iced Earth - I Died For You [3:48]
    03. Iced Earth - Violate [3:38]
    04. Iced Earth - The Hunter [3:54]
    05. Iced Earth - The Last Laugh [3:46]
    06. Iced Earth - Depths Of Hell [3:01]
    07. Iced Earth - Vengeance Is Mine [4:22]
    08. Iced Earth - The Suffering: Scarred [5:54]
    09. Iced Earth - The Suffering: Slave To The Dark [4:03]
    10. Iced Earth - The Suffering: A Question Of Heaven [7:38]
    --------------------------
    Total time: [43:47]

    Personnel:
    ===================
    Backing Vocals – Jim Morris, Jon Schaffer, Mark Prator
    Bass – Dave Abell
    Drums – Mark Prator
    Engineer – Jim Morris
    Lead Guitar – Randall Shawver
    Lead Vocals – Matthew Barlow
    Liner Notes – 和田誠
    Producer – Jim Morris, Jon Schaffer
    Rhythm Guitar, Vocals – Jon Schaffer
    Vocals – Kate Barlow

    Notes:
    ==================
    Manufactured and Distributed by Ⓟ & Ⓒ 1996Victor Entertainment, Inc.
    Ⓒ 1996 Todd McFarlane Productions, Inc.
    [свернуть]

    ••• Log EAC + Log auCDtect + Dynamic Range Meter + Spectrum •••

    Exact Audio Copy V1.0 beta 3 from 29. August 2011

    EAC extraction logfile from 17. December 2012, 14:59

    Iced Earth / The Dark Saga [1996, Japan, Victor, VICP-5754]

    Used drive : HL-DT-STDVDRAM GSA-T50F Adapter: 0 ID: 2

    Read mode : Secure
    Utilize accurate stream : Yes
    Defeat audio cache : Yes
    Make use of C2 pointers : No

    Read offset correction : 667
    Overread into Lead-In and Lead-Out : No
    Fill up missing offset samples with silence : Yes
    Delete leading and trailing silent blocks : No
    Null samples used in CRC calculations : Yes
    Used interface : Installed external ASPI interface

    Used output format : User Defined Encoder
    Selected bitrate : 1024 kBit/s
    Quality : High
    Add ID3 tag : No
    Command line compressor : C:\Program Files (x86)\Exact Audio Copy\FLAC\FLAC.EXE
    Additional command line options : -V -8 -T "Date=%year%" -T "Genre=%genre%" %source%


    TOC of the extracted CD

    Track | Start | Length | Start sector | End sector
    ---------------------------------------------------------
    1 | 0:00.37 | 3:43.03 | 37 | 16764
    2 | 3:43.40 | 3:47.67 | 16765 | 33856
    3 | 7:31.32 | 3:38.35 | 33857 | 50241
    4 | 11:09.67 | 3:53.63 | 50242 | 67779
    5 | 15:03.55 | 3:46.25 | 67780 | 84754
    6 | 18:50.05 | 3:01.05 | 84755 | 98334
    7 | 21:51.10 | 4:21.57 | 98335 | 117966
    8 | 26:12.67 | 5:53.43 | 117967 | 144484
    9 | 32:06.35 | 4:03.22 | 144485 | 162731
    10 | 36:09.57 | 7:38.05 | 162732 | 197086


    Range status and errors

    Selected range

    Filename D:\Rip by Ballcrusher\Iced Earth - The Dark Saga [1996, Japan, Victor, VICP-5754].wav

    Peak level 100.0 %
    Extraction speed 3.8 X
    Range quality 99.9 %
    Test CRC 0A26857B
    Copy CRC 0A26857B
    Copy OK

    No errors occurred


    AccurateRip summary

    Track 1 accurately ripped (confidence 2) [854F2E65] (AR v1)
    Track 2 accurately ripped (confidence 2) [0D48D9F3] (AR v1)
    Track 3 accurately ripped (confidence 2) [A613FAFD] (AR v1)
    Track 4 accurately ripped (confidence 2) [9CB7674B] (AR v1)
    Track 5 accurately ripped (confidence 2) [921A157D] (AR v1)
    Track 6 accurately ripped (confidence 2) [A74153E2] (AR v1)
    Track 7 accurately ripped (confidence 2) [3C1E7C88] (AR v1)
    Track 8 accurately ripped (confidence 2) [34468FFB] (AR v1)
    Track 9 accurately ripped (confidence 2) [0D317EB7] (AR v1)
    Track 10 accurately ripped (confidence 2) [46796D0C] (AR v1)

    All tracks accurately ripped

    End of status report

    ==== Log checksum 3EC8FADD7964A20344DF2B0273C9FAC2775E53BAB208F1E9A8 F9F415E8C53B8E ====

    ///////////////////////////////////////////////////////////////////////////////

    -----------------------

    DON'T MODIFY THIS FILE

    -----------------------

    PERFORMER: auCDtect Task Manager, ver. 1.6.0 RC1 build 1.6.0.1
    Copyright (c) 2008-2010 y-soft. All rights reserved
    http://y-soft.org

    ANALYZER: auCDtect: CD records authenticity detector, version 0.8.2
    Copyright (c) 2004 Oleg Berngardt. All rights reserved.
    Copyright (c) 2004 Alexander Djourik. All rights reserved.


    FILE: Iced Earth - The Dark Saga [1996, Japan, Victor, VICP-5754].flac
    Size: 304639502 Hash: 8CE79B70358C2545E0FC9752CF09E43B Accuracy: -m0
    Conclusion: CDDA 100%
    Signature: 359D9C3666C9C30AF829FD6EE46AB247C09E221B

    ///////////////////////////////////////////////////////////////////////////////////

    foobar2000 1.3.5 / Dynamic Range Meter 1.1.1
    log date: 2014-12-07 11:54:59

    --------------------------------------------------------------------------------
    Analyzed: Iced Earth / The Dark Saga [1996, Japan, Victor, VICP-5754]
    --------------------------------------------------------------------------------

    DR Peak RMS Duration Track
    --------------------------------------------------------------------------------
    DR10 0.00 dB -11.66 dB 3:43 01-Dark Saga
    DR9 0.00 dB -10.56 dB 3:48 02-I Died For You
    DR9 0.00 dB -10.50 dB 3:38 03-Violate
    DR9 0.00 dB -10.67 dB 3:54 04-The Hunter
    DR9 0.00 dB -10.55 dB 3:46 05-The Last Laugh
    DR9 0.00 dB -9.92 dB 3:01 06-Depths Of Hell
    DR10 0.00 dB -11.78 dB 4:22 07-Vengeance Is Mine
    DR10 0.00 dB -11.94 dB 5:54 08-The Suffering: Scarred
    DR11 0.00 dB -11.92 dB 4:03 09-The Suffering: Slave To The Dark
    DR12 0.00 dB -14.15 dB 7:38 10-The Suffering: A Question Of Heaven
    --------------------------------------------------------------------------------

    Number of tracks: 10
    Official DR value: DR10

    Samplerate: 44100 Hz
    Channels: 2
    Bits per sample: 16
    Bitrate: 927 kbps
    Codec: FLAC
    ================================================== ==============================

    /////////////////////////////////////////////////////////////////////////////////////

    [свернуть]

    The Dark Saga - четвертый студийный альбом американской хэви-металлической группы Iced Earth. Выпущенный 23 июля 1996 года, это был первый альбом группы с барабанщиком Марком Пратором, а также последний с басистом Дэйвом Абеллом и вокалистом Рэндаллом Шоувером.


    Iced Earth - The Dark Saga



    Скрытый текст (вы должны войти под своим логином или зарегистрироваться и иметь 5 сообщение(ий)):
    У вас нет прав чтобы видеть скрытый текст, содержащийся здесь.

  4. 5 пользователя(ей) сказали cпасибо:

    Coroed (14.05.2019), Puharik (14.05.2019), Riddler (14.05.2019), vlad56 (15.05.2019), Старец (16.05.2019)

  5. #12
    Супер модератор Array Аватар для aheron
    Регистрация
    11.06.2018
    Сообщений
    520
    Сказал(а) спасибо
    4,132
    Поблагодарили 3,000 раз(а)
    в 475 сообщениях
    Онлайн
    1 Нед 3 Дней 7 ч 38 мин 48 сек
    В среднем
    4 мин 38 сек
    Iced Earth - The Glorious Burden (2004) [Japan]





    Performer: Iced Earth
    Album: The Glorious Burden
    Label: Steamhammer/Nippon Crown Co., Ltd.. Made in Japan.
    Catalog #: CRCL-4823
    Style: Heavy Metal
    Year: 2004
    Format: FLAC (image + .cue)
    Bitrate: lossless
    Covers: in archive
    Amount of tracks: 13
    Size ZIP: ~ 600 mb

    ••• Tracklist •••

    01. Iced Earth - Declaration Day [4:54]
    02. Iced Earth - When The Eagle Cries [4:07]
    03. Iced Earth - The Reckoning (Don't Tread On Me) [4:58]
    04. Iced Earth - Attila [5:38]
    05. Iced Earth - Red Baron / Blue Max [4:05]
    06. Iced Earth - Hollow Man [4:25]
    07. Iced Earth - Waterloo [5:45]
    08. Iced Earth - Valley Forge [4:47]
    09. Iced Earth - Gettysburg (1863): The Devil To Pay [12:13]
    10. Iced Earth - Gettysburg (1863): Hold At All Costs [7:06]
    11. Iced Earth - Gettysburg (1863): High Water Mark [12:49]
    -Bonus Tracks=-
    12. Iced Earth - Green Face [3:02]
    13. Iced Earth - When The Eagle Cries - Unplugged [3:33]
    --------------------------
    Total time: [1:17:22]

    Personnel:
    ================
    Tim "Ripper" Owens − lead vocals
    Jon Schaffer − rhythm guitar, lead guitar, acoustic guitar, backing vocals
    James MacDonough − bass guitar
    Richard Christy − drums

    Notes:
    ================
    ℗2004 Steamhammer
    ©2004 Steamhammer
    [свернуть]

    ••• Log EAC + Log auCDtect + Dynamic Range Meter + Spectrum •••

    Exact Audio Copy V1.0 beta 3 from 29. August 2011

    EAC extraction logfile from 20. December 2012, 20:46

    Iced Earth / The Glorious Burden [2004, Japan, Nippon Crown, CRCL-4823]

    Used drive : HP DVD Writer 640v Adapter: 5 ID: 0

    Read mode : Secure
    Utilize accurate stream : Yes
    Defeat audio cache : Yes
    Make use of C2 pointers : No

    Read offset correction : 618
    Overread into Lead-In and Lead-Out : No
    Fill up missing offset samples with silence : Yes
    Delete leading and trailing silent blocks : No
    Null samples used in CRC calculations : Yes
    Used interface : Installed external ASPI interface

    Used output format : User Defined Encoder
    Selected bitrate : 1024 kBit/s
    Quality : High
    Add ID3 tag : No
    Command line compressor : C:\Program Files (x86)\Exact Audio Copy\FLAC\FLAC.EXE
    Additional command line options : -V -8 -T "Date=%year%" -T "Genre=%genre%" %source%


    TOC of the extracted CD

    Track | Start | Length | Start sector | End sector
    ---------------------------------------------------------
    1 | 0:00.00 | 4:54.08 | 0 | 22057
    2 | 4:54.08 | 4:06.63 | 22058 | 40570
    3 | 9:00.71 | 4:57.58 | 40571 | 62903
    4 | 13:58.54 | 5:37.74 | 62904 | 88252
    5 | 19:36.53 | 4:05.08 | 88253 | 106635
    6 | 23:41.61 | 4:25.20 | 106636 | 126530
    7 | 28:07.06 | 5:44.70 | 126531 | 152400
    8 | 33:52.01 | 4:47.19 | 152401 | 173944
    9 | 38:39.20 | 12:12.57 | 173945 | 228901
    10 | 50:52.02 | 7:06.14 | 228902 | 260865
    11 | 57:58.16 | 12:48.50 | 260866 | 318515
    12 | 70:46.66 | 3:01.66 | 318516 | 332156
    13 | 73:48.57 | 3:33.37 | 332157 | 348168


    Range status and errors

    Selected range

    Filename D:\Rip by Ballcrusher\Iced Earth - The Glorious Burden [2004, Japan, Nippon Crown, CRCL-4823].wav

    Peak level 98.8 %
    Extraction speed 1.9 X
    Range quality 100.0 %
    Test CRC D8A9E97C
    Copy CRC D8A9E97C
    Copy OK

    No errors occurred


    AccurateRip summary

    Track 1 not present in database
    Track 2 not present in database
    Track 3 not present in database
    Track 4 not present in database
    Track 5 not present in database
    Track 6 not present in database
    Track 7 not present in database
    Track 8 not present in database
    Track 9 not present in database
    Track 10 not present in database
    Track 11 not present in database
    Track 12 not present in database
    Track 13 not present in database

    None of the tracks are present in the AccurateRip database

    End of status report

    ==== Log checksum C0A2733A70CB690CEC5B1054C713FC15CAC50DA598DEC076A5 5079D3DE841019 ====

    /////////////////////////////////////////////////////////////////////////////

    -----------------------

    DON'T MODIFY THIS FILE

    -----------------------

    PERFORMER: auCDtect Task Manager, ver. 1.6.0 RC1 build 1.6.0.1
    Copyright (c) 2008-2010 y-soft. All rights reserved
    http://y-soft.org

    ANALYZER: auCDtect: CD records authenticity detector, version 0.8.2
    Copyright (c) 2004 Oleg Berngardt. All rights reserved.
    Copyright (c) 2004 Alexander Djourik. All rights reserved.


    FILE: Iced Earth - The Glorious Burden [2004, Japan, Nippon Crown, CRCL-4823].flac
    Size: 569797963 Hash: 689BB9C0A2BA2C477A4DD039C85B6091 Accuracy: -m0
    Conclusion: CDDA 99%
    Signature: 00F1486557208DE82552316EB9D50A9045A74279

    /////////////////////////////////////////////////////////////////////////////////

    foobar2000 1.3.5 / Dynamic Range Meter 1.1.1
    log date: 2014-12-07 16:23:14

    --------------------------------------------------------------------------------
    Analyzed: Iced Earth / The Glorious Burden [2004, Japan, Nippon Crown, CRCL-4823]
    --------------------------------------------------------------------------------

    DR Peak RMS Duration Track
    --------------------------------------------------------------------------------
    DR12 -0.10 dB -12.50 dB 4:54 01-Declaration Day
    DR10 -0.10 dB -13.22 dB 4:07 02-When The Eagle Cries
    DR11 -0.10 dB -12.81 dB 4:58 03-The Reckoning (Don't Tread On Me)
    DR11 -0.10 dB -11.95 dB 5:38 04-Attila
    DR10 -0.10 dB -11.84 dB 4:05 05-Red Baron / Blue Max
    DR12 -0.10 dB -14.14 dB 4:25 06-Hollow Man
    DR11 -0.10 dB -11.52 dB 5:45 07-Waterloo
    DR11 -0.10 dB -12.34 dB 4:47 08-Valley Forge
    DR10 -0.10 dB -12.28 dB 12:13 09-Gettysburg (1863): The Devil To Pay
    DR12 -0.10 dB -13.62 dB 7:06 10-Gettysburg (1863): Hold At All Costs
    DR10 -0.10 dB -12.50 dB 12:49 11-Gettysburg (1863): High Water Mark
    DR10 -0.10 dB -11.54 dB 3:02 12-Green Face
    DR12 -0.10 dB -14.08 dB 3:33 13-When The Eagle Cries - Unplugged
    --------------------------------------------------------------------------------

    Number of tracks: 13
    Official DR value: DR11

    Samplerate: 44100 Hz
    Channels: 2
    Bits per sample: 16
    Bitrate: 982 kbps
    Codec: FLAC
    ================================================== ==============================

    /////////////////////////////////////////////////////////////////////////////////

    [свернуть]

    The Glorious Burden (рус. Славное Бремя) — концептуальный альбом американской хэви-метал-группы Iced Earth, вышедший в 2004 году. В отличие от большинства предыдущих альбомов группы, тексты песен на Glorious Burden посвящены не мистике и религии, а военной истории. Тексты рассказывают о битве при Ватерлоо, о завоеваниях Аттилы, об асе Первой мировой «Красном Бароне» фон Рихтгофене. Кульминацией альбома являются три песни, посвященные трем дням Геттисбергской Битвы, основного сражению Гражданской войны в США. Американская патриотическая тематика играет важную роль в альбоме, который в качестве интро открывается фрагментом Гимна США, исполненного на электрогитаре.


    Iced Earth - Gettysburg (1863)



    Скрытый текст (вы должны войти под своим логином или зарегистрироваться и иметь 5 сообщение(ий)):
    У вас нет прав чтобы видеть скрытый текст, содержащийся здесь.

  6. 5 пользователя(ей) сказали cпасибо:

    Coroed (15.05.2019), Puharik (15.05.2019), Riddler (15.05.2019), vlad56 (15.05.2019), Старец (16.05.2019)

Страница 2 из 2 ПерваяПервая 12

Информация о теме

Пользователи, просматривающие эту тему

Эту тему просматривают: 1 (пользователей: 0 , гостей: 1)

Социальные закладки

Социальные закладки

Ваши права

  • Вы не можете создавать новые темы
  • Вы не можете отвечать в темах
  • Вы не можете прикреплять вложения
  • Вы не можете редактировать свои сообщения
  •