Показано с 1 по 6 из 6

Тема: The Alan Parsons Project

  1. #1
    Супер модератор Array Аватар для aheron
    Регистрация
    11.06.2018
    Сообщений
    583
    Сказал(а) спасибо
    4,395
    Поблагодарили 3,342 раз(а)
    в 540 сообщениях
    Онлайн
    1 Нед 4 Дней 11 ч 14 мин 30 сек
    В среднем
    4 мин 56 сек

    The Alan Parsons Project






    The Alan Parsons Project — рок-группа из Великобритании, творившая с 1975 по 1990 год в стилях арт-рок, симфонический рок и прогрессивный рок. Основана Аланом Парсонсом и Эриком Вулфсоном. Выпущено 10 оригинальных студийных альбомов, общий тираж которых превысил 50 млн копий. После 1990 года Алан Парсонс и Эрик Вулфсон продолжали выпускать сольные альбомы, близкие к творчеству группы. Алан Парсонс начал свою трудовую деятельность в качестве звукорежиссёра. Он сотрудничал с "The Beatles", "The Hollies", Полом Маккартни и Джорджем Харрисоном, однако самым значимым моментом того периода стала его работа над легендарным альбомом "Pink Floyd" "The Dark Side Of The Moon". В середине 70-х Парсонс решил попробовать себя в другой ипостаси и задумал записать подборку композиций, посвящённых творчеству Эдгара По. Для реализации идеи Алан пригласил к сотрудничеству музыканта, композитора и вокалиста Эрика Вулфсона, а их совместный проект получил имя "The Alan Parsons Project". Все остальные участники группы работали в ней на сессионной основе и частенько менялись. Среди них были такие личности как Артур Браун, Колин Бланстоун ("The Zombies"), Стив Харли ("Cockney Rebel"), Алан Кларк ("The Hollies"). Из всех музыкантов работавших на The Alan Parsons Project были практически только двое (не считая Парсонса и Вулфсона) постоянных – гитарист Иан Байрсон и занимавшийся оркестровками Эндрю Пауэлл. Официально группа никогда не имела постоянного состава, исключая основателей группы:
    Алан Парсонс (Alan Parsons) — продюсер, звукорежиссёр, автор музыки, клавишные, акустическая гитара, бас-гитара, флейта, вокодер, программирование, дополнительная ритм-гитара;
    Эрик Вулфсон (Eric Woolfson) — исполнительный продюсер, автор музыки и текстов, вокал, клавишные;
    Иен Байрсон (Ian Bairnson) — бессменный гитарист, автор музыки и текстов.

    Однако существовал более-менее постоянный «костяк группы» в следующем составе:

  2. 3 пользователя(ей) сказали cпасибо:

    Puharik (04.10.2019), vlad56 (02.10.2019), Старец (04.10.2019)

  3. #2
    Супер модератор Array Аватар для aheron
    Регистрация
    11.06.2018
    Сообщений
    583
    Сказал(а) спасибо
    4,395
    Поблагодарили 3,342 раз(а)
    в 540 сообщениях
    Онлайн
    1 Нед 4 Дней 11 ч 14 мин 30 сек
    В среднем
    4 мин 56 сек
    The Alan Parsons Project - Tales Of Mystery And Imagination Edgar Allan Poe (1976) [Japan 1989]





    Performer: The Alan Parsons Project
    Album: Tales Of Mystery And Imagination Edgar Allan Poe
    Label: Mercury. Made in Japan.
    Catalog #: PPD-3042
    Style: Progressive & Art-Rock
    Year: 1976 (Reissue 1989)
    Format: FLAC (image + .cue)
    Bitrate: lossless
    Covers: in archive
    Amount of tracks: 7
    Size ZIP: ~ 313 mb

    ••• Tracklist •••

    01. The Alan Parsons Project - A Dream Within A Dream (Instrumental) [4:14]
    02. The Alan Parsons Project - The Raven [3:58]
    03. The Alan Parsons Project - The Tell-Tale Heart [4:39]
    04. The Alan Parsons Project - The Cask Of Amontillado [4:33]
    05. The Alan Parsons Project - (The System Of) Doctor Tarr And Professor Fether [4:21]
    06. The Alan Parsons Project - The Fall Of The House Of Usher (Instrumental) I.Prelude II.Arrival III.Intermezzo IV.Pavane V.Fall [16:10]
    07. The Alan Parsons Project - To One In Paradise [4:48]
    --------------------------
    Total time: [42:42]

    Notes:
    =====================
    Ⓟ 1976 PolyGram Records Inc., New York
    Produced by Alan Parsons
    Manufactured and Distributed by Nippon Phonogram Co., Ltd. Tokyo.
    Made in Japan. JASRAC
    [свернуть]

    ••• Log EAC + Log auCDtect + Dynamic Range Meter + Spectrum •••

    Exact Audio Copy V1.0 beta 4 from 7. December 2014

    EAC extraction logfile from 6. December 2015, 8:48

    The Alan Parsons Project / Tales Of Mystery And Imagination Edgar Allan Poe (1989, PPD-3042)

    Used drive : ATAPI iHAS124 B Adapter: 1 ID: 0

    Read mode : Secure
    Utilize accurate stream : Yes
    Defeat audio cache : Yes
    Make use of C2 pointers : No

    Read offset correction : 6
    Overread into Lead-In and Lead-Out : No
    Fill up missing offset samples with silence : Yes
    Delete leading and trailing silent blocks : No
    Null samples used in CRC calculations : Yes
    Used interface : Installed external ASPI interface

    Used output format : User Defined Encoder
    Selected bitrate : 128 kBit/s
    Quality : High
    Add ID3 tag : Yes
    Command line compressor : C:\Program Files (x86)\Exact Audio Copy\Flac\flac.exe
    Additional command line options : -V -8 -T "Date=%year%" -T "Genre=%genre%" %source%


    TOC of the extracted CD

    Track | Start | Length | Start sector | End sector
    ---------------------------------------------------------
    1 | 0:00.00 | 4:13.67 | 0 | 19041
    2 | 4:13.67 | 3:57.65 | 19042 | 36881
    3 | 8:11.57 | 4:38.65 | 36882 | 57796
    4 | 12:50.47 | 4:33.30 | 57797 | 78301
    5 | 17:24.02 | 4:20.55 | 78302 | 97856
    6 | 21:44.57 | 16:09.70 | 97857 | 170601
    7 | 37:54.52 | 4:47.40 | 170602 | 192166


    Range status and errors

    Selected range

    Filename G:\CD\The Alan Parsons Project - Tales Of Mystery And Imagination Edgar Allan Poe.wav

    Peak level 97.7 %
    Extraction speed 5.4 X
    Range quality 100.0 %
    Test CRC 1F0ADB31
    Copy CRC 1F0ADB31
    Copy OK

    No errors occurred


    AccurateRip summary

    Track 1 accurately ripped (confidence 1) [17400726] (AR v1)
    Track 2 accurately ripped (confidence 1) [11A638F0] (AR v1)
    Track 3 accurately ripped (confidence 1) [240B1FB9] (AR v1)
    Track 4 accurately ripped (confidence 1) [9EFA8989] (AR v1)
    Track 5 accurately ripped (confidence 1) [DE285E5D] (AR v1)
    Track 6 accurately ripped (confidence 1) [A6E0824B] (AR v1)
    Track 7 accurately ripped (confidence 1) [FCF42E26] (AR v1)

    All tracks accurately ripped

    End of status report

    ---- CUETools DB Plugin V2.1.4

    [CTDB TOCID: FOkn_9pL_p1vqARc5c6ntiohVyo-] found
    Submit result: already submitted
    Track | CTDB Status
    1 | (3/3) Accurately ripped
    2 | (3/3) Accurately ripped
    3 | (3/3) Accurately ripped
    4 | (3/3) Accurately ripped
    5 | (3/3) Accurately ripped
    6 | (3/3) Accurately ripped
    7 | (3/3) Accurately ripped


    ==== Log checksum 98819A2586691574CA97997472EB9B908B49D0807101B4F85B1EBDE026977E00 ====

    ///////////////////////////////////////////////////////////////////////////////////

    -----------------------

    DON'T MODIFY THIS FILE

    -----------------------

    PERFORMER: auCDtect Task Manager, ver. 1.6.0 RC1 build 1.6.0.1
    Copyright (c) 2008-2010 y-soft. All rights reserved
    http://y-soft.org

    ANALYZER: auCDtect: CD records authenticity detector, version 0.8.2
    Copyright (c) 2004 Oleg Berngardt. All rights reserved.
    Copyright (c) 2004 Alexander Djourik. All rights reserved.


    FILE: The Alan Parsons Project - Tales Of Mystery And Imagination Edgar Allan Poe.flac
    Size: 246694083 Hash: BC3C2E4C59937F31C00E1A6A035CB959 Accuracy: -m0
    Conclusion: CDDA 100%
    Signature: FF82EDF2876D24F1FED804980482F5E449801E40

    /////////////////////////////////////////////////////////////////////////////////

    foobar2000 1.3.9 / Dynamic Range Meter 1.1.1
    log date: 2016-03-11 19:50:00

    --------------------------------------------------------------------------------
    Analyzed: The Alan Parsons Project / Tales Of Mystery And Imagination Edgar Allan Poe (1989, PPD-3042)
    --------------------------------------------------------------------------------

    DR Peak RMS Duration Track
    --------------------------------------------------------------------------------
    DR14 -0.20 dB -20.20 dB 4:14 01-A Dream Within A Dream (Instrumental)
    DR10 -0.20 dB -13.86 dB 3:58 02-The Raven
    DR10 -0.20 dB -14.17 dB 4:39 03-The Tell-Tale Heart
    DR10 -0.20 dB -15.30 dB 4:33 04-The Cask Of Amontillado
    DR8 -0.20 dB -10.63 dB 4:21 05-(The System Of) Doctor Tarr And Professor Fether
    DR10 -0.20 dB -15.69 dB 16:10 06-The Fall Of The House Of Usher (Instrumental) I.Prelude II.Arrival III.Intermezzo IV.Pavane V.Fall
    DR9 -0.20 dB -11.72 dB 4:48 07-To One In Paradise
    --------------------------------------------------------------------------------

    Number of tracks: 7
    Official DR value: DR10

    Samplerate: 44100 Hz
    Channels: 2
    Bits per sample: 16
    Bitrate: 770 kbps
    Codec: FLAC
    ================================================================================

    /////////////////////////////////////////////////////////////////////////////////

    [свернуть]

    Tales of Mystery and Imagination — дебютный студийный альбом английской арт-рок-группы The Alan Parsons Project. Вышел в США в мае (20th Century Fox Records), а в Великобритании — в июле 1976 года (Charisma Records). Записан на знаменитой звукозаписывающей студии «Эбби Роуд» (июль 1975 - январь 1976). Поднялся до #38 в Billboard 200. «Tales of Mystery and Imagination» создан под влиянием мистического творчества американского писателя и поэта Эдгара По и по мотивам его произведений. В частности, само название альбома повторяет название первого сборника произведении Эдгара По, изданного в 1908 году. Альбом представляет собой философское творение в лучших традициях симфо-арт-рока с отголосками психоделики, не уступающее в качестве Genesis, Pink Floyd и Yes. Он великолепно скомпонован и воспринимается как единое целое, а не набор отдельных композиций.
    Скрытый текст (вы должны войти под своим логином или зарегистрироваться и иметь 5 сообщение(ий)):
    У вас нет прав чтобы видеть скрытый текст, содержащийся здесь.

  4. 4 пользователя(ей) сказали cпасибо:

    Coroed (02.10.2019), Puharik (04.10.2019), vlad56 (02.10.2019), Старец (04.10.2019)

  5. #3
    Супер модератор Array Аватар для aheron
    Регистрация
    11.06.2018
    Сообщений
    583
    Сказал(а) спасибо
    4,395
    Поблагодарили 3,342 раз(а)
    в 540 сообщениях
    Онлайн
    1 Нед 4 Дней 11 ч 14 мин 30 сек
    В среднем
    4 мин 56 сек
    The Alan Parsons Project - Stereotomy (1985)





    Performer: The Alan Parsons Project
    Album: Stereotomy
    Label: Arista. Made in US.
    Catalog #: ARCD-8384
    Style: Rock, Art Rock, Progressive Rock
    Year: 1985
    Format: FLAC (image + .cue)
    Bitrate: lossless
    Covers: in archive
    Amount of tracks: 9
    Size ZIP: ~ 422 mb

    ••• Tracklist •••

    01. The Alan Parsons Project - Stereotomy [7:18]
    02. The Alan Parsons Project - Beaujolais [4:27]
    03. The Alan Parsons Project - Urbania (Instrumental) [4:59]
    04. The Alan Parsons Project - Limelight [4:39]
    05. The Alan Parsons Project - In The Real World [4:20]
    06. The Alan Parsons Project - Where’s The Walrus? (Instrumental) [7:31]
    07. The Alan Parsons Project - Light Of The World [6:20]
    08. The Alan Parsons Project - Chinese Whispers (Instrumental) [1:01]
    09. The Alan Parsons Project - Stereotomy Two [1:22]
    --------------------------
    Total time: [41:58]

    Credits:
    =====================
    Vocals: John Miles, Chris Rainbow, Gary Brooker
    Graham Dye, Steve Dye, Eric Woolfson
    Bass: David Paton
    Drums and Percussion: Stuart Elliott
    Guitars: Ian Bairnson
    Synths and Saxes: Richard Cottle
    Pianos and Keyboards: Eric Woolfson
    Additional Keyboards: Alan Parsons
    The Philharmonica Orchestra (Leader Christoffer Warren-Green)

    Produced by: Alan Parsons
    Executive Producer: Eric Woolfson
    Orchestra arranged and conducted by: Andrew Powell
    Engineered by: Alan Parsons with Tony Richards
    Assistant engineer: Noel Rafferty

    Notes:
    =====================
    (P) & © 1985 Arista Records, Inc.
    The album was recorded and mixed at Mayfair Studios, London, Between October 1984 and August 1985. The orchestra recorded at Abbey Road Studios. The album was recorded entirely on digital equipment.

    Originally published in 1985, also on CD.
    Made in U.S.A.
    Printed in U.S.A. Disc made in Japan.
    [свернуть]

    ••• Log EAC + Log auCDtect + Dynamic Range Meter + Spectrum •••

    Exact Audio Copy V1.1 from 23. June 2015

    EAC extraction logfile from 1. January 2016, 12:11

    The Alan Parsons Project / Stereotomy

    Used drive : SONY BD RW BDX-S600U Adapter: 1 ID: 2

    Read mode : Secure
    Utilize accurate stream : Yes
    Defeat audio cache : Yes
    Make use of C2 pointers : No

    Read offset correction : 48
    Overread into Lead-In and Lead-Out : No
    Fill up missing offset samples with silence : Yes
    Delete leading and trailing silent blocks : No
    Null samples used in CRC calculations : Yes
    Used interface : Native Win32 interface for Win NT & 2000

    Used output format : User Defined Encoder
    Selected bitrate : 768 kBit/s
    Quality : High
    Add ID3 tag : No
    Command line compressor : C:\Program Files (x86)\Exact Audio Copy\FLAC\FLAC.EXE
    Additional command line options : -6 -V -T "ARTIST=%artist%" -T "TITLE=%title%" -T "ALBUM=%albumtitle%" -T "DATE=%year%" -T "TRACKNUMBER=%tracknr%" -T "GENRE=%genre%" -T "COMMENT=%comment%" -T "BAND=%albuminterpret%" -T "ALBUMARTIST=%albuminterpret%" -T "COMPOSER=%composer%" %haslyrics%--tag-from-file=LYRICS="%lyricsfile%"%haslyrics% -T "DISCNUMBER=%cdnumber%" -T "TOTALDISCS=%totalcds%" -T "TOTALTRACKS=%numtracks%" %hascover%--picture="%coverfile%"%hascover% %source% -o %dest%


    TOC of the extracted CD

    Track | Start | Length | Start sector | End sector
    ---------------------------------------------------------
    1 | 0:00.00 | 7:18.27 | 0 | 32876
    2 | 7:18.27 | 4:27.28 | 32877 | 52929
    3 | 11:45.55 | 4:59.35 | 52930 | 75389
    4 | 16:45.15 | 4:39.35 | 75390 | 96349
    5 | 21:24.50 | 4:20.02 | 96350 | 115851
    6 | 25:44.52 | 7:31.30 | 115852 | 149706
    7 | 33:16.07 | 6:19.70 | 149707 | 178201
    8 | 39:36.02 | 1:01.00 | 178202 | 182776
    9 | 40:37.02 | 1:21.40 | 182777 | 188891


    Range status and errors

    Selected range

    Filename D:\1985. The Alan Parsons Project ‎– Stereotomy (Arista,ARCD-8384,Japan for USA)\The Alan Parsons Project - Stereotomy.wav

    Peak level 90.0 %
    Extraction speed 6.1 X
    Range quality 99.9 %
    Test CRC F94A2C84
    Copy CRC F94A2C84
    Copy OK

    No errors occurred


    AccurateRip summary

    Track 1 accurately ripped (confidence 54) [38459BD8] (AR v2)
    Track 2 accurately ripped (confidence 56) [E3BB1AE9] (AR v2)
    Track 3 accurately ripped (confidence 55) [F1943A83] (AR v2)
    Track 4 accurately ripped (confidence 56) [C24BA3C5] (AR v2)
    Track 5 accurately ripped (confidence 55) [20B00769] (AR v2)
    Track 6 accurately ripped (confidence 56) [C985057D] (AR v2)
    Track 7 accurately ripped (confidence 55) [F73F5DB3] (AR v2)
    Track 8 accurately ripped (confidence 54) [FA10AF6B] (AR v2)
    Track 9 accurately ripped (confidence 55) [EA0A037B] (AR v2)

    All tracks accurately ripped

    End of status report

    ==== Log checksum EC2A349514030C53B6D4A1610037F4A3F6FA83063D91A43993 801E2C9A2F12E7 ====

    ///////////////////////////////////////////////////////////////////////////////

    -----------------------

    DON'T MODIFY THIS FILE

    -----------------------

    PERFORMER: auCDtect Task Manager, ver. 1.6.0 RC1 build 1.6.0.1
    Copyright (c) 2008-2010 y-soft. All rights reserved
    http://y-soft.org

    ANALYZER: auCDtect: CD records authenticity detector, version 0.8.2
    Copyright (c) 2004 Oleg Berngardt. All rights reserved.
    Copyright (c) 2004 Alexander Djourik. All rights reserved.


    FILE: The Alan Parsons Project - Stereotomy.flac
    Size: 251284593 Hash: 57BC824916734865AB1728EDB166B030 Accuracy: -m0
    Conclusion: MPEG 95%
    Signature: ABC121690F0DDC9289074A853624616923CBA7B1

    ////////////////////////////////////////////////////////////////////////////////

    foobar2000 1.3.9 / Dynamic Range Meter 1.1.1
    log date: 2016-01-03 19:30:59

    --------------------------------------------------------------------------------
    Analyzed: The Alan Parsons Project / Stereotomy
    --------------------------------------------------------------------------------

    DR Peak RMS Duration Track
    --------------------------------------------------------------------------------
    DR14 -2.32 dB -20.29 dB 7:18 01-Stereotomy
    DR15 -2.92 dB -20.35 dB 4:27 02-Beaujolais
    DR13 -4.31 dB -21.97 dB 4:59 03-Urbania (Instrumental)
    DR15 -0.91 dB -18.78 dB 4:39 04-Limelight
    DR16 -1.46 dB -19.78 dB 4:20 05-In The Real World
    DR14 -1.87 dB -19.47 dB 7:31 06-Where’s The Walrus? (Instrumental)
    DR15 -1.41 dB -21.38 dB 6:20 07-Light Of The World
    DR13 -9.82 dB -27.47 dB 1:01 08-Chinese Whispers (Instrumental)
    DR13 -2.23 dB -18.41 dB 1:22 09-Stereotomy Two
    --------------------------------------------------------------------------------

    Number of tracks: 9
    Official DR value: DR14

    Samplerate: 44100 Hz
    Channels: 2
    Bits per sample: 16
    Bitrate: 798 kbps
    Codec: FLAC
    ================================================== ==============================

    ////////////////////////////////////////////////////////////////////////////////

    [свернуть]

    Stereotomy (рус. Стереотомия) — девятый студийный альбом английской арт-рок-группы The Alan Parsons Project, изданный в 1985 году. Хотя альбом был встречен критикой несколько лучше, чем предшествовавший ему Vulture Culture, он оказался менее успешным в коммерческом плане, вероятно по причине того, что имел значительно меньший вклад со стороны Эрика Вулфсона (исполнившего лишь бэк-вокал в титульной композиции). Несмотря на это, композиция «Where’s The Walrus?» была номинирована на премию «Грэмми» в 1987 году в номинации «Лучшее инструментальное рок-исполнение». Термин «Стереотомия» взят из рассказа «Убийство на улице Морг» Эдгара Аллана По и используется в качестве метафоры по отношению к тому, как известные люди оказываются скованными рамками, наложенными на них славой. Структурно и в музыкальном плане Stereotomy заметно отличается от предыдущих альбомов The Alan Parsons Project, в большей степени напоминая «сольные» альбомы Алан Парсонса, выпущенные после ухода Вулфсона. Альбом включает три длинных композиции и сразу несколько «инструменталов» (что является необычным для поздних альбомов группы) и, в целом, выдержан в футуристическом «синтезаторном» стиле.


    The Alan Parsons Project - Stereotomy



    Скрытый текст (вы должны войти под своим логином или зарегистрироваться и иметь 5 сообщение(ий)):
    У вас нет прав чтобы видеть скрытый текст, содержащийся здесь.

  6. 4 пользователя(ей) сказали cпасибо:

    Coroed (03.10.2019), Puharik (04.10.2019), vlad56 (12.10.2019), Старец (04.10.2019)

  7. #4
    Супер модератор Array Аватар для aheron
    Регистрация
    11.06.2018
    Сообщений
    583
    Сказал(а) спасибо
    4,395
    Поблагодарили 3,342 раз(а)
    в 540 сообщениях
    Онлайн
    1 Нед 4 Дней 11 ч 14 мин 30 сек
    В среднем
    4 мин 56 сек
    The Alan Parsons Project - The Best Of The Alan Parsons Project (1983) [Remastered 1987]





    Performer: The Alan Parsons Project
    Album: The Best Of The Alan Parsons Project
    Label: Arista/BMG. Made in EC.
    Catalog #: 610 052
    Style: Art Rock/Progressive Rock
    Year: 1983 (Compilation, Remastered 1987)
    Format: FLAC (image + .cue)
    Bitrate: lossless
    Covers: in archive
    Amount of tracks: 12
    Size ZIP: ~ 326 mb

    ••• Tracklist •••

    01. The Alan Parsons Project - I Wouldn't Want To Be Like You [3:12]
    02. The Alan Parsons Project - Eye In The Sky [4:37]
    03. The Alan Parsons Project - Games People Play [4:21]
    04. The Alan Parsons Project - Time [5:00]
    05. The Alan Parsons Project - Pyromania [2:45]
    06. The Alan Parsons Project - You Don't Believe [4:27]
    07. The Alan Parsons Project - Lucifer [4:10]
    08. The Alan Parsons Project - Psychobabble [4:51]
    09. The Alan Parsons Project - Damned If I Do [3:35]
    10. The Alan Parsons Project - Don't Let It Show [3:32]
    11. The Alan Parsons Project - Can't Take It With You [4:45]
    12. The Alan Parsons Project - Old And Wise [4:10]
    --------------------------
    Total time: [49:24]

    Notes:
    =====================
    Digitally Remastered at Abbey Road Studios in London, England

    ℗ 1983 Arista Records Inc.
    Made in the EC.
    [свернуть]

    ••• Log EAC + Log auCDtect + Dynamic Range Meter + Spectrum •••

    Exact Audio Copy V1.0 beta 3 from 29. August 2011

    Отчёт EAC об извлечении, выполненном 14. декабря 2013, 14:42

    The Alan Parsons Project / The Best Of (1983)

    Дисковод: HL-DT-STDVDRAM GH22NS40 Adapter: 4 ID: 0

    Режим чтения : Достоверность
    Использование точного потока : Да
    Отключение кэша аудио : Да
    Использование указателей C2 : Нет

    Коррекция смещения при чтении : 667
    Способность читать области Lead-in и Lead-out : Нет
    Заполнение пропущенных сэмплов тишиной : Да
    Удаление блоков с тишиной в начале и конце : Нет
    При вычислениях CRC использовались нулевые сэмплы : Да
    Интерфейс : Встроенный Win32-интерфейс для Win NT/2000

    Выходной формат : Пользовательский кодировщик
    Выбранный битрейт : 1024 kBit/s
    Качество : Высокий
    Добавление ID3-тега : Нет
    Утилита сжатия : C:\Program Files\FLAC\flac.exe
    Дополнительные параметры : -V -8 -T "Date=%year%" -T "Genre=%genre%" %source%


    TOC извлечённого CD

    Трек | Старт | Длительность | Начальный сектор | Конечный сектор
    ---------------------------------------------------------------------
    1 | 0:00.00 | 3:11.60 | 0 | 14384
    2 | 3:11.60 | 4:36.52 | 14385 | 35136
    3 | 7:48.37 | 4:20.58 | 35137 | 54694
    4 | 12:09.20 | 5:00.22 | 54695 | 77216
    5 | 17:09.42 | 2:44.45 | 77217 | 89561
    6 | 19:54.12 | 4:26.68 | 89562 | 109579
    7 | 24:21.05 | 4:10.20 | 109580 | 128349
    8 | 28:31.25 | 4:51.27 | 128350 | 150201
    9 | 33:22.52 | 3:34.48 | 150202 | 166299
    10 | 36:57.25 | 3:32.00 | 166300 | 182199
    11 | 40:29.25 | 4:45.37 | 182200 | 203611
    12 | 45:14.62 | 4:09.38 | 203612 | 222324


    Характеристики диапазона извлечения и сообщения об ошибках

    Выбранный диапазон

    Имя файла C:\Program Files\Exact Audio Copy\The Alan Parsons Project - The Best Of (1983).wav

    Пиковый уровень 100.0 %
    Скорость извлечения 2.0 X
    Качество диапазона 100.0 %
    CRC теста FA95C147
    CRC копии FA95C147
    Копирование... OK

    Ошибок не произошло


    AccurateRip: сводка

    Трек 1 : извлечено точно (доверие 53) [730B4D94] (AR v2)
    Трек 2 : извлечено точно (доверие 53) [807A2647] (AR v2)
    Трек 3 : извлечено точно (доверие 53) [C1286166] (AR v2)
    Трек 4 : извлечено точно (доверие 53) [883FC10D] (AR v2)
    Трек 5 : извлечено точно (доверие 53) [66C87F2E] (AR v2)
    Трек 6 : извлечено точно (доверие 53) [C8E855F1] (AR v2)
    Трек 7 : извлечено точно (доверие 52) [6614A9DE] (AR v2)
    Трек 8 : извлечено точно (доверие 52) [00A01003] (AR v2)
    Трек 9 : извлечено точно (доверие 51) [16036712] (AR v2)
    Трек 10 : извлечено точно (доверие 52) [1B970479] (AR v2)
    Трек 11 : извлечено точно (доверие 51) [708519FC] (AR v2)
    Трек 12 : извлечено точно (доверие 50) [B0142503] (AR v2)

    Все треки извлечены точно

    Конец отчёта

    ==== Контрольная сумма отчёта 405B81C9C4DD6719C04DF298075E2FB81904EF5B27CC1EA77F 14AD90E90BF12F ====

    //////////////////////////////////////////////////////////////////////////////////

    -----------------------

    DON'T MODIFY THIS FILE

    -----------------------

    PERFORMER: auCDtect Task Manager, ver. 1.6.0 RC1 build 1.6.0.1
    Copyright (c) 2008-2010 y-soft. All rights reserved
    http://y-soft.org

    ANALYZER: auCDtect: CD records authenticity detector, version 0.8.2
    Copyright (c) 2004 Oleg Berngardt. All rights reserved.
    Copyright (c) 2004 Alexander Djourik. All rights reserved.


    FILE: The Alan Parsons Project - The Best Of (1983).flac
    Size: 298637578 Hash: 79971BE3B39A21FD215F7301959B019E Accuracy: -m0
    Conclusion: MPEG 95%
    Signature: 98B4F15608505E816848C264E942BAF09005B889

    //////////////////////////////////////////////////////////////////////////////////

    foobar2000 1.3.2 / Dynamic Range Meter 1.1.1
    log date: 2014-06-16 11:33:09

    --------------------------------------------------------------------------------
    Analyzed: The Alan Parsons Project / The Best Of (1983)
    --------------------------------------------------------------------------------

    DR Peak RMS Duration Track
    --------------------------------------------------------------------------------
    DR12 -3.27 dB -18.79 dB 3:12 01-I Wouldn't Want To Be Like You
    DR13 -3.63 dB -20.38 dB 4:37 02-Eye In The Sky
    DR14 -1.10 dB -19.04 dB 4:21 03-Games People Play
    DR14 -2.55 dB -20.29 dB 5:00 04-Time
    DR14 -3.35 dB -20.76 dB 2:45 05-Pyromania
    DR14 -1.58 dB -18.07 dB 4:27 06-You Don't Believe
    DR14 -0.22 dB -18.09 dB 4:10 07-Lucifer
    DR16 0.00 dB -20.31 dB 4:51 08-Psychobabble
    DR14 -1.81 dB -18.16 dB 3:35 09-Damned If I Do
    DR12 -4.47 dB -20.42 dB 3:32 10-Don't Let It Show
    DR15 -0.56 dB -18.47 dB 4:45 11-Can't Take It With You
    DR14 -2.56 dB -21.28 dB 4:10 12-Old And Wise
    --------------------------------------------------------------------------------

    Number of tracks: 12
    Official DR value: DR14

    Samplerate: 44100 Hz
    Channels: 2
    Bits per sample: 16
    Bitrate: 806 kbps
    Codec: FLAC
    ================================================== ==============================

    ///////////////////////////////////////////////////////////////////////////////////

    [свернуть]

    The Best of The Alan Parsons Project — первый сборник лучших хитов английской арт-рок-группы «The Alan Parsons Project», изданный в 1983 году. Альбом включал песни из предыдущих альбомов группы, а также одну новую композицию You Don’t Believe. Альбом был выпущен фирмой грамзаписи «Мелодия» в Советском Союзе в 1986-м году, став первым выпущенным в стране альбомом The Alan Parsons Project. Композиция «Psychobabble» в советской версии отсутствовала. Кроме того, на пластинке было ошибочно отмечено, что песни были взяты, в том числе, из альбома Tales of Mystery and Imagination, отсутствовавшие в данном издании, однако не были упомянуты ни в действительности вошедший в подборку альбом Eye in the Sky, ни то, что композиция «You Don’t Believe» была впервые выпущена в рамках этого альбома.


    Скрытый текст (вы должны войти под своим логином или зарегистрироваться и иметь 5 сообщение(ий)):
    У вас нет прав чтобы видеть скрытый текст, содержащийся здесь.

  8. 4 пользователя(ей) сказали cпасибо:

    Coroed (05.10.2019), Puharik (05.10.2019), vlad56 (12.10.2019), Старец (05.10.2019)

  9. #5
    Супер модератор Array Аватар для aheron
    Регистрация
    11.06.2018
    Сообщений
    583
    Сказал(а) спасибо
    4,395
    Поблагодарили 3,342 раз(а)
    в 540 сообщениях
    Онлайн
    1 Нед 4 Дней 11 ч 14 мин 30 сек
    В среднем
    4 мин 56 сек
    The Alan Parsons Project - The Complete Albums Collection [11CD] (2014)





    Performer: The Alan Parsons Project
    Box: The Complete Albums Collection
    Album: 1976 Tales Of Mystery And Imagination: Edgar Allan Poe
    1977 I Robot ● 1978 Pyramid ● 1979 Eve
    1980 The Turn Of A Friendly Card ● 1982 Eye In The Sky
    1984 Ammonia Avenue ● 1984 Vulture Culture
    1985 Stereotomy ● 1987 Gaudi ● 2014 The Sicilian Defence (Unreleased)
    Label: Arista Records | Island Records | The Island Def Jam Music Group
    Universal Music Special Markets | Legacy Recordings | Sony Music. Made in the EU.
    Catalog #: 88697890552
    Style: ProgRock, ArtRock, Electronic
    Year: 2014 (11CD Box Set RCA Records, Remastered, Reissue)
    Format: FLAC (image + .cue)
    Bitrate: lossless
    Covers: In archive
    Amount of tracks: many
    Source: rip by ALLexxess
    Size ZIP: ~ 3,4 gb

    ••• Tracklist •••

    CD1 - 1976 - Tales Of Mystery And Imagination
    ---------------------------------------
    01. Alan Parsons Project - A Dream Within A Dream (Instrumental) [4:14]
    02. Alan Parsons Project - The Raven [3:58]
    03. Alan Parsons Project - The Tell-Tale Heart [4:39]
    04. Alan Parsons Project - The Cask Of Amontillado [4:33]
    05. Alan Parsons Project - (The System Of) Doctor Tarr And Professor Fether [4:21]
    06. Alan Parsons Project - The Fall Of The House Of Usher: I. Prelude [7:03]
    07. Alan Parsons Project - The Fall Of The House Of Usher: II. Arrival [2:40]
    08. Alan Parsons Project - The Fall Of The House Of Usher: III. Intermezzo [1:00]
    09. Alan Parsons Project - The Fall Of The House Of Usher: IV. Pavane [4:36]
    10. Alan Parsons Project - The Fall Of The House Of Usher: V. Fall [0:51]
    11. Alan Parsons Project - To One In Paradise [4:47]
    --------------------------
    Total time [00:42:41]

    CD2 - 1977 - I Robot
    --------------------------------
    01. Alan Parsons Project - I Robot [6:02]
    02. Alan Parsons Project - I Wouldn't Want To Be Like You [3:23]
    03. Alan Parsons Project - Some Other Time [4:06]
    04. Alan Parsons Project - Breakdown [3:53]
    05. Alan Parsons Project - Don't Let It Show [4:26]
    06. Alan Parsons Project - The Voice [5:23]
    07. Alan Parsons Project - Nucleus [3:22]
    08. Alan Parsons Project - Day After Day (The Show Must Go On) [3:57]
    09. Alan Parsons Project - Total Eclipse [3:12]
    10. Alan Parsons Project - Genesis Ch.1 V.32 [3:32]
    --------------------------
    Total time [00:41:17]

    CD3 - 1978 - Pyramid
    -----------------------------------
    01. Alan Parsons Project - Voyager [2:15]
    02. Alan Parsons Project - What Goes Up... [3:40]
    03. Alan Parsons Project - The Eagle Will Rise Again [4:22]
    04. Alan Parsons Project - One More River [4:17]
    05. Alan Parsons Project - Can't Take It With You [5:07]
    06. Alan Parsons Project - In The Lap Of The Gods [5:31]
    07. Alan Parsons Project - Pyramania [2:43]
    08. Alan Parsons Project - Hyper-Gamma-Spaces [4:20]
    09. Alan Parsons Project - Shadow Of A Lonely Man [5:45]
    --------------------------
    Total time [00:38:00]

    CD4 - 1979 - Eve
    -----------------------------------
    01. Alan Parsons Project - Lucifer [5:09]
    02. Alan Parsons Project - You Lie Down With Dogs [3:49]
    03. Alan Parsons Project - I'd Rather Be A Man [3:54]
    04. Alan Parsons Project - You Won't Be There [3:43]
    05. Alan Parsons Project - Winding Me Up [3:56]
    06. Alan Parsons Project - Damned If I Do [4:53]
    07. Alan Parsons Project - Don't Hold Back [3:37]
    08. Alan Parsons Project - Secret Garden [4:44]
    09. Alan Parsons Project - If I Could Change Your Mind [6:00]
    --------------------------
    Total time [00:39:44]

    CD5 - 1980 - The Turn Of A Friendly Card
    -----------------------------------------
    01. Alan Parsons Project - May Be A Price To Pay [5:01]
    02. Alan Parsons Project - Games People Play [4:24]
    03. Alan Parsons Project - Time [5:15]
    04. Alan Parsons Project - I Don't Wanna Go Home [4:52]
    05. Alan Parsons Project - The Gold Bug [4:34]
    06. Alan Parsons Project - The Turn Of A Friendly Card: I. The Turn Of A Friendly Card (Part One) [2:45]
    07. Alan Parsons Project - The Turn Of A Friendly Card: II. Snake Eyes [3:16]
    08. Alan Parsons Project - The Turn Of A Friendly Card: III. The Ace Of Swords [2:59]
    09. Alan Parsons Project - The Turn Of A Friendly Card: IV. Nothing Left To Lose [4:07]
    10. Alan Parsons Project - The Turn Of A Friendly Card: V. The Turn Of A Friendly Card (Part Two) [3:22]
    --------------------------
    Total time [00:40:35]

    CD6 - 1982 - Eye In The Sky
    ----------------------------------
    01. Alan Parsons Project - Sirius [1:56]
    02. Alan Parsons Project - Eye In The sky [4:36]
    03. Alan Parsons Project - Children Of The Moon [4:51]
    04. Alan Parsons Project - Gemini [2:10]
    05. Alan Parsons Project - Silence And I [7:21]
    06. Alan Parsons Project - You're Gonna Get Your Fingers Burned [4:22]
    07. Alan Parsons Project - Psychobabble [4:53]
    08. Alan Parsons Project - Mammagamma [3:35]
    09. Alan Parsons Project - Step By Step [3:54]
    10. Alan Parsons Project - Old And Wise [5:06]
    --------------------------
    Total time [00:42:44]

    CD7 - 1984 - Ammonia Avenue
    -----------------------------------
    01. Alan Parsons Project - Prime Time [5:04]
    02. Alan Parsons Project - Let Me Go Home [3:21]
    03. Alan Parsons Project - One Good Reason [3:37]
    04. Alan Parsons Project - Since The Last Goodbye [4:35]
    05. Alan Parsons Project - Don't Answer Me [4:12]
    06. Alan Parsons Project - Dancing On A Highwire [4:24]
    07. Alan Parsons Project - You Don't Believe [4:27]
    08. Alan Parsons Project - Pipeline [3:57]
    09. Alan Parsons Project - Ammonia Avenue [6:37]
    --------------------------
    Total time [00:40:14]

    CD8 - 1984 - Vulture Culture
    ----------------------------------------
    01. Alan Parsons Project - Let's Talk About Me [4:29]
    02. Alan Parsons Project - Separate Lives [4:38]
    03. Alan Parsons Project - Days Are Numbers (The Traveller) [4:53]
    04. Alan Parsons Project - Sooner Or Later [4:25]
    05. Alan Parsons Project - Vulture Culture [5:23]
    06. Alan Parsons Project - Hawkeye [3:49]
    07. Alan Parsons Project - Somebody Out There [4:56]
    08. Alan Parsons Project - The Same Old Sun [5:28]
    --------------------------
    Total time [00:38:01]

    CD9 - 1985 - Stereotomy
    ----------------------------------
    01. Alan Parsons Project - Stereotomy [7:18]
    02. Alan Parsons Project - Beaujolais [4:28]
    03. Alan Parsons Project - Urbania (Instrumental) [5:00]
    04. Alan Parsons Project - Limelight [4:39]
    05. Alan Parsons Project - In The Real World [4:21]
    06. Alan Parsons Project - Where's The Walrus? (Instrumental) [7:31]
    07. Alan Parsons Project - Light Of The World [6:20]
    08. Alan Parsons Project - Chinese Whispers (Instrumental) [1:01]
    09. Alan Parsons Project - Stereotomy Two [1:20]
    --------------------------
    Total time [00:41:57]

    CD10 - 1987 - Gaudi
    --------------------------------------
    01. Alan Parsons Project - La Sagrada Familia [8:48]
    02. Alan Parsons Project - Too Late [4:31]
    03. Alan Parsons Project - Closer To Heaven [5:54]
    04. Alan Parsons Project - Standing On Higher Ground [5:49]
    05. Alan Parsons Project - Money Talks [4:26]
    06. Alan Parsons Project - Inside Looking Out [6:27]
    07. Alan Parsons Project - Paseo De Gracia (Instrumental) [3:53]
    --------------------------
    Total time [00:39:48]

    CD11 - 2014 - The Sicilian Defence (Unreleased)
    ------------------------------------------
    01. Alan Parsons Project - P - K4 [5:01]
    02. Alan Parsons Project - P - QB4 [6:23]
    03. Alan Parsons Project - Kt - KB3 [3:08]
    04. Alan Parsons Project - ...Kt - QB3 [1:16]
    05. Alan Parsons Project - P - Q4 [3:55]
    06. Alan Parsons Project - P x P [3:28]
    07. Alan Parsons Project - Kt x P [4:02]
    08. Alan Parsons Project - Kt - B3 [0:54]
    09. Alan Parsons Project - Kt - QB3 [8:16]
    10. Alan Parsons Project - P - Q3 [3:30]
    --------------------------
    Total time [00:39:52]

    Notes:
    =====================
    Sticker on shrink wrap:
    11CD SET
    Includes All 10 Studio Albums in Mini-Vinyl replica sleeves
    New booklet with Rare and Unseen Photos
    Plus
    The unreleased album THE SICILIAN DEFENCE
    88697890552

    This Compilation © 2014 RCA Records, a division of Sony Music Entertainment, ℗ 1977, 1978, 1979, 1980, 1982, 1984, 1985, 1987, 2014, RCA Records, a division of Sony Music Entertainment / Disc 1 Originally released 1976, © 1976, ℗ 1987 The Island Def Jam Music Group.
    [свернуть]

    ••• Log auCDtect + Dynamic Range Meter + Spectrum •••

    -----------------------

    DON'T MODIFY THIS FILE

    -----------------------

    PERFORMER: auCDtect Task Manager, ver. 1.6.0 RC1 build 1.6.0.1
    Copyright (c) 2008-2010 y-soft. All rights reserved
    http://y-soft.org

    ANALYZER: auCDtect: CD records authenticity detector, version 0.8.2
    Copyright (c) 2004 Oleg Berngardt. All rights reserved.
    Copyright (c) 2004 Alexander Djourik. All rights reserved.


    FILE: Alan Parsons Project - Tales Of Mystery And Imagination.flac
    Size: 247156673 Hash: 47067EC2B286EB2833502F090B1BA144 Accuracy: -m0
    Conclusion: CDDA 100%
    Signature: A0585B16B09CDD56FC596249843DD02CB8B35603

    //////////////////////////////////////////////////////////////////////////

    -----------------------

    DON'T MODIFY THIS FILE

    -----------------------

    PERFORMER: auCDtect Task Manager, ver. 1.6.0 RC1 build 1.6.0.1
    Copyright (c) 2008-2010 y-soft. All rights reserved
    http://y-soft.org

    ANALYZER: auCDtect: CD records authenticity detector, version 0.8.2
    Copyright (c) 2004 Oleg Berngardt. All rights reserved.
    Copyright (c) 2004 Alexander Djourik. All rights reserved.


    FILE: Alan Parsons Project - I Robot.flac
    Size: 264120577 Hash: B1C7CC7959D3B518BF27CBA06057002B Accuracy: -m0
    Conclusion: CDDA 100%
    Signature: F71F6F388C0F29498E29637FA9332E3C70AA2D8B

    //////////////////////////////////////////////////////////////////////////////

    -----------------------

    DON'T MODIFY THIS FILE

    -----------------------

    PERFORMER: auCDtect Task Manager, ver. 1.6.0 RC1 build 1.6.0.1
    Copyright (c) 2008-2010 y-soft. All rights reserved
    http://y-soft.org

    ANALYZER: auCDtect: CD records authenticity detector, version 0.8.2
    Copyright (c) 2004 Oleg Berngardt. All rights reserved.
    Copyright (c) 2004 Alexander Djourik. All rights reserved.


    FILE: Alan Parsons Project - Pyramid.flac
    Size: 243408202 Hash: F85E6E0DABE3AA5B4CF78D0CDB2A87A7 Accuracy: -m0
    Conclusion: CDDA 100%
    Signature: 0804A5D3904FDAA4EB9B4FCDBB2C67B72D47930B

    /////////////////////////////////////////////////////////////////////////////////

    -----------------------

    DON'T MODIFY THIS FILE

    -----------------------

    PERFORMER: auCDtect Task Manager, ver. 1.6.0 RC1 build 1.6.0.1
    Copyright (c) 2008-2010 y-soft. All rights reserved
    http://y-soft.org

    ANALYZER: auCDtect: CD records authenticity detector, version 0.8.2
    Copyright (c) 2004 Oleg Berngardt. All rights reserved.
    Copyright (c) 2004 Alexander Djourik. All rights reserved.


    FILE: Alan Parsons Project - Eve.flac
    Size: 276761380 Hash: 3409F7E4DCBB856C8613BFD4FCF2A61F Accuracy: -m0
    Conclusion: CDDA 99%
    Signature: 419A1995D2670A41031D010D5F7C8E3BBC4C65D8

    /////////////////////////////////////////////////////////////////////////////////

    -----------------------

    DON'T MODIFY THIS FILE

    -----------------------

    PERFORMER: auCDtect Task Manager, ver. 1.6.0 RC1 build 1.6.0.1
    Copyright (c) 2008-2010 y-soft. All rights reserved
    http://y-soft.org

    ANALYZER: auCDtect: CD records authenticity detector, version 0.8.2
    Copyright (c) 2004 Oleg Berngardt. All rights reserved.
    Copyright (c) 2004 Alexander Djourik. All rights reserved.


    FILE: Alan Parsons Project - The Turn Of A Friendly Card.flac
    Size: 269933886 Hash: 64C8365D8AE76E6ABF02793E577A21BF Accuracy: -m0
    Conclusion: CDDA 99%
    Signature: 8016A6FD00C034CADC57E298D0CA7CF0000F62EC

    ////////////////////////////////////////////////////////////////////////////

    -----------------------

    DON'T MODIFY THIS FILE

    -----------------------

    PERFORMER: auCDtect Task Manager, ver. 1.6.0 RC1 build 1.6.0.1
    Copyright (c) 2008-2010 y-soft. All rights reserved
    http://y-soft.org

    ANALYZER: auCDtect: CD records authenticity detector, version 0.8.2
    Copyright (c) 2004 Oleg Berngardt. All rights reserved.
    Copyright (c) 2004 Alexander Djourik. All rights reserved.


    FILE: Alan Parsons Project - Eye In The Sky.flac
    Size: 271180366 Hash: 01189DC08E70A1D2BED16BC44946015F Accuracy: -m0
    Conclusion: CDDA 100%
    Signature: 5F2F22CD3BB943E52A7FF5376E6D8E37729EEF8E

    ///////////////////////////////////////////////////////////////////////////////

    -----------------------

    DON'T MODIFY THIS FILE

    -----------------------

    PERFORMER: auCDtect Task Manager, ver. 1.6.0 RC1 build 1.6.0.1
    Copyright (c) 2008-2010 y-soft. All rights reserved
    http://y-soft.org

    ANALYZER: auCDtect: CD records authenticity detector, version 0.8.2
    Copyright (c) 2004 Oleg Berngardt. All rights reserved.
    Copyright (c) 2004 Alexander Djourik. All rights reserved.


    FILE: Alan Parsons Project - Ammonia Avenue.flac
    Size: 279120739 Hash: 735AA2C0CC355EB9EC6187D7C931AB9C Accuracy: -m0
    Conclusion: CDDA 100%
    Signature: 6039343318F27191811B2C68A1F5142E37C98D0D

    ////////////////////////////////////////////////////////////////////////////

    -----------------------

    DON'T MODIFY THIS FILE

    -----------------------

    PERFORMER: auCDtect Task Manager, ver. 1.6.0 RC1 build 1.6.0.1
    Copyright (c) 2008-2010 y-soft. All rights reserved
    http://y-soft.org

    ANALYZER: auCDtect: CD records authenticity detector, version 0.8.2
    Copyright (c) 2004 Oleg Berngardt. All rights reserved.
    Copyright (c) 2004 Alexander Djourik. All rights reserved.


    FILE: Alan Parsons Project - Vulture Culture.flac
    Size: 246021788 Hash: 159F400451513A711DBA563B7868DE07 Accuracy: -m0
    Conclusion: CDDA 100%
    Signature: 5461810EB2F434FCBBED9B40C1325240C45AA5BA

    ////////////////////////////////////////////////////////////////////////

    -----------------------

    DON'T MODIFY THIS FILE

    -----------------------

    PERFORMER: auCDtect Task Manager, ver. 1.6.0 RC1 build 1.6.0.1
    Copyright (c) 2008-2010 y-soft. All rights reserved
    http://y-soft.org

    ANALYZER: auCDtect: CD records authenticity detector, version 0.8.2
    Copyright (c) 2004 Oleg Berngardt. All rights reserved.
    Copyright (c) 2004 Alexander Djourik. All rights reserved.


    FILE: Alan Parsons Project - Stereotomy.flac
    Size: 281784503 Hash: 039ECB14015E147A200AF83AC6CB62B6 Accuracy: -m0
    Conclusion: CDDA 100%
    Signature: BB6A4550BC7E2D84D5495FF378926DCB7802FAEA

    //////////////////////////////////////////////////////////////////////////

    -----------------------

    DON'T MODIFY THIS FILE

    -----------------------

    PERFORMER: auCDtect Task Manager, ver. 1.6.0 RC1 build 1.6.0.1
    Copyright (c) 2008-2010 y-soft. All rights reserved
    http://y-soft.org

    ANALYZER: auCDtect: CD records authenticity detector, version 0.8.2
    Copyright (c) 2004 Oleg Berngardt. All rights reserved.
    Copyright (c) 2004 Alexander Djourik. All rights reserved.


    FILE: Alan Parsons Project - Gaudi.flac
    Size: 255867515 Hash: F08A53E41BDC42BCAA83AB62537698F8 Accuracy: -m0
    Conclusion: CDDA 100%
    Signature: F1A3782FCE65143070ED87BC89B63D28A3B1F49A

    ///////////////////////////////////////////////////////////////////////////

    -----------------------

    DON'T MODIFY THIS FILE

    -----------------------

    PERFORMER: auCDtect Task Manager, ver. 1.6.0 RC1 build 1.6.0.1
    Copyright (c) 2008-2010 y-soft. All rights reserved
    http://y-soft.org

    ANALYZER: auCDtect: CD records authenticity detector, version 0.8.2
    Copyright (c) 2004 Oleg Berngardt. All rights reserved.
    Copyright (c) 2004 Alexander Djourik. All rights reserved.


    FILE: Alan Parsons Project - The Sicilian Defence.flac
    Size: 213175739 Hash: 0A20B7D2C207CAA5F5C59E03AB7299CA Accuracy: -m0
    Conclusion: CDDA 99%
    Signature: 9FE7C0E1B163FCC1DC9CE6DEC3B299734C0B5860[/CUT]

    ##################################################

    foobar2000 1.3.1 / Dynamic Range Meter 1.1.1
    log date: 2014-04-14 19:12:45

    --------------------------------------------------------------------------------
    Analyzed: Alan Parsons Project / Tales Of Mystery And Imagination
    --------------------------------------------------------------------------------

    DR Peak RMS Duration Track
    --------------------------------------------------------------------------------
    DR14 -0.20 dB -20.20 dB 4:14 01-A Dream Within A Dream (Instrumental)
    DR10 -0.20 dB -13.86 dB 3:58 02-The Raven
    DR10 -0.20 dB -14.17 dB 4:39 03-The Tell-Tale Heart
    DR10 -0.20 dB -15.30 dB 4:33 04-The Cask Of Amontillado
    DR8 -0.20 dB -10.63 dB 4:21 05-(The System Of) Doctor Tarr And Professor Fether
    DR17 -0.20 dB -22.71 dB 7:03 06-The Fall Of The House Of Usher: I. Prelude
    DR10 -0.20 dB -14.01 dB 2:40 07-The Fall Of The House Of Usher: II. Arrival
    DR10 -9.94 dB -25.09 dB 1:00 08-The Fall Of The House Of Usher: III. Intermezzo
    DR9 -0.20 dB -13.57 dB 4:36 09-The Fall Of The House Of Usher: IV. Pavane
    DR7 -0.20 dB -10.27 dB 0:51 10-The Fall Of The House Of Usher: V. Fall
    DR9 -0.20 dB -11.72 dB 4:47 11-To One In Paradise
    --------------------------------------------------------------------------------

    Number of tracks: 11
    Official DR value: DR10

    Samplerate: 44100 Hz
    Channels: 2
    Bits per sample: 16
    Bitrate: 772 kbps
    Codec: FLAC
    ================================================================================

    ////////////////////////////////////////////////////////////////////////////////

    foobar2000 1.3.1 / Dynamic Range Meter 1.1.1
    log date: 2014-04-14 19:13:00

    --------------------------------------------------------------------------------
    Analyzed: Alan Parsons Project / I Robot
    --------------------------------------------------------------------------------

    DR Peak RMS Duration Track
    --------------------------------------------------------------------------------
    DR8 -0.10 dB -10.94 dB 6:02 01- I Robot
    DR8 -0.10 dB -10.93 dB 3:23 02-I Wouldn't Want To Be Like You
    DR7 -0.10 dB -10.86 dB 4:06 03-Some Other Time
    DR7 -0.10 dB -9.25 dB 3:53 04-Breakdown
    DR7 -0.10 dB -10.32 dB 4:26 05-Don't Let It Show
    DR8 -0.10 dB -11.16 dB 5:23 06-The Voice
    DR10 -0.10 dB -15.29 dB 3:22 07-Nucleus
    DR10 -0.10 dB -11.82 dB 3:57 08-Day After Day (The Show Must Go On)
    DR10 -0.10 dB -14.71 dB 3:12 09-Total Eclipse
    DR7 -0.10 dB -10.84 dB 3:32 10-Genesis Ch.1 V.32
    --------------------------------------------------------------------------------

    Number of tracks: 10
    Official DR value: DR8

    Samplerate: 44100 Hz
    Channels: 2
    Bits per sample: 16
    Bitrate: 853 kbps
    Codec: FLAC
    ================================================================================

    ///////////////////////////////////////////////////////////////////////////////////

    foobar2000 1.3.1 / Dynamic Range Meter 1.1.1
    log date: 2014-04-14 19:13:14

    --------------------------------------------------------------------------------
    Analyzed: Alan Parsons Project / Pyramid
    --------------------------------------------------------------------------------

    DR Peak RMS Duration Track
    --------------------------------------------------------------------------------
    DR13 -0.20 dB -17.34 dB 2:15 01-Voyager
    DR12 -0.20 dB -15.86 dB 3:40 02-What Goes Up...
    DR9 -0.78 dB -14.02 dB 4:22 03-The Eagle Will Rise Again
    DR10 -0.20 dB -12.47 dB 4:17 04-One More River
    DR11 -0.20 dB -13.52 dB 5:07 05-Can't Take It With You
    DR11 -0.20 dB -15.25 dB 5:31 06-In The Lap Of The Gods
    DR11 -0.20 dB -12.75 dB 2:43 07-Pyramania
    DR12 -0.20 dB -14.27 dB 4:20 08-Hyper-Gamma-Spaces
    DR12 -0.25 dB -17.02 dB 5:45 09-Shadow Of A Lonely Man
    --------------------------------------------------------------------------------

    Number of tracks: 9
    Official DR value: DR11

    Samplerate: 44100 Hz
    Channels: 2
    Bits per sample: 16
    Bitrate: 854 kbps
    Codec: FLAC
    ================================================================================

    ////////////////////////////////////////////////////////////////////////////////////

    foobar2000 1.3.1 / Dynamic Range Meter 1.1.1
    log date: 2014-04-14 19:13:30

    --------------------------------------------------------------------------------
    Analyzed: Alan Parsons Project / Eve
    --------------------------------------------------------------------------------

    DR Peak RMS Duration Track
    --------------------------------------------------------------------------------
    DR10 -0.20 dB -12.47 dB 5:09 01-Lucifer
    DR10 -0.20 dB -12.13 dB 3:49 02-You Lie Down With Dogs
    DR8 -0.20 dB -10.62 dB 3:54 03-I'd Rather Be A Man
    DR8 -0.20 dB -10.98 dB 3:43 04-You Won't Be There
    DR9 -0.20 dB -10.73 dB 3:56 05-Winding Me Up
    DR9 -0.20 dB -11.44 dB 4:53 06-Damned If I Do
    DR10 -0.20 dB -11.84 dB 3:37 07-Don't Hold Back
    DR9 -0.20 dB -11.92 dB 4:44 08-Secret Garden
    DR9 -0.20 dB -13.27 dB 6:00 09-If I Could Change Your Mind
    --------------------------------------------------------------------------------

    Number of tracks: 9
    Official DR value: DR9

    Samplerate: 44100 Hz
    Channels: 2
    Bits per sample: 16
    Bitrate: 928 kbps
    Codec: FLAC
    ================================================================================

    /////////////////////////////////////////////////////////////////////////////////////

    foobar2000 1.3.1 / Dynamic Range Meter 1.1.1
    log date: 2014-04-14 19:13:45

    --------------------------------------------------------------------------------
    Analyzed: Alan Parsons Project / The Turn Of A Friendly Card
    --------------------------------------------------------------------------------

    DR Peak RMS Duration Track
    --------------------------------------------------------------------------------
    DR12 -0.58 dB -15.20 dB 5:01 01-May Be A Price To Pay
    DR12 -0.60 dB -15.04 dB 4:24 02-Games People Play
    DR13 -0.40 dB -16.16 dB 5:15 03-Time
    DR12 -0.40 dB -15.19 dB 4:52 04-I Don't Wanna Go Home
    DR11 -0.58 dB -14.13 dB 4:34 05-The Gold Bug
    DR13 -0.69 dB -16.75 dB 2:45 06-The Turn Of A Friendly Card: I. The Turn Of A Friendly Card (Part One)
    DR12 -0.69 dB -15.05 dB 3:16 07-The Turn Of A Friendly Card: II. Snake Eyes
    DR12 -0.58 dB -15.27 dB 2:59 08-The Turn Of A Friendly Card: III. The Ace Of Swords
    DR10 -0.58 dB -13.47 dB 4:07 09-The Turn Of A Friendly Card: IV. Nothing Left To Lose
    DR10 -0.58 dB -13.92 dB 3:22 10-The Turn Of A Friendly Card: V. The Turn Of A Friendly Card (Part Two)
    --------------------------------------------------------------------------------

    Number of tracks: 10
    Official DR value: DR12

    Samplerate: 44100 Hz
    Channels: 2
    Bits per sample: 16
    Bitrate: 886 kbps
    Codec: FLAC
    ================================================================================

    ///////////////////////////////////////////////////////////////////////////////////

    foobar2000 1.3.1 / Dynamic Range Meter 1.1.1
    log date: 2014-04-14 19:14:01

    --------------------------------------------------------------------------------
    Analyzed: Alan Parsons Project / Eye In The Sky
    --------------------------------------------------------------------------------

    DR Peak RMS Duration Track
    --------------------------------------------------------------------------------
    DR12 -0.30 dB -15.53 dB 1:56 01-Sirius
    DR11 -0.30 dB -13.48 dB 4:36 02-Eye In The sky
    DR9 -0.30 dB -12.54 dB 4:51 03-Children Of The Moon
    DR11 -1.15 dB -15.92 dB 2:10 04-Gemini
    DR10 -0.30 dB -13.38 dB 7:21 05-Silence And I
    DR10 -0.30 dB -12.12 dB 4:22 06-You're Gonna Get Your Fingers Burned
    DR12 -0.30 dB -15.22 dB 4:53 07-Psychobabble
    DR11 -0.29 dB -12.74 dB 3:35 08-Mammagamma
    DR11 -0.30 dB -13.39 dB 3:54 09-Step By Step
    DR10 -0.30 dB -14.32 dB 5:06 10-Old And Wise
    --------------------------------------------------------------------------------

    Number of tracks: 10
    Official DR value: DR11

    Samplerate: 44100 Hz
    Channels: 2
    Bits per sample: 16
    Bitrate: 846 kbps
    Codec: FLAC
    ================================================================================

    ////////////////////////////////////////////////////////////////////////////////////

    foobar2000 1.3.1 / Dynamic Range Meter 1.1.1
    log date: 2014-04-14 19:14:17

    --------------------------------------------------------------------------------
    Analyzed: Alan Parsons Project / Ammonia Avenue
    --------------------------------------------------------------------------------

    DR Peak RMS Duration Track
    --------------------------------------------------------------------------------
    DR12 0.00 dB -13.95 dB 5:04 01-Prime Time
    DR12 0.00 dB -14.11 dB 3:21 02-Let Me Go Home
    DR12 0.00 dB -14.04 dB 3:37 03-One Good Reason
    DR11 0.00 dB -13.71 dB 4:35 04-Since The Last Goodbye
    DR11 0.00 dB -12.34 dB 4:12 05-Don't Answer Me
    DR12 0.00 dB -14.19 dB 4:24 06-Dancing On A Highwire
    DR11 0.00 dB -12.86 dB 4:27 07-You Don't Believe
    DR10 0.00 dB -12.00 dB 3:57 08-Pipeline
    DR12 -1.78 dB -17.58 dB 6:37 09-Ammonia Avenue
    --------------------------------------------------------------------------------

    Number of tracks: 9
    Official DR value: DR11

    Samplerate: 44100 Hz
    Channels: 2
    Bits per sample: 16
    Bitrate: 925 kbps
    Codec: FLAC
    ================================================================================

    ////////////////////////////////////////////////////////////////////////////////////

    foobar2000 1.3.1 / Dynamic Range Meter 1.1.1
    log date: 2014-04-14 19:14:31

    --------------------------------------------------------------------------------
    Analyzed: Alan Parsons Project / Vulture Culture
    --------------------------------------------------------------------------------

    DR Peak RMS Duration Track
    --------------------------------------------------------------------------------
    DR11 -0.30 dB -14.79 dB 4:29 01-Let's Talk About Me
    DR13 -0.30 dB -14.71 dB 4:38 02-Separate Lives
    DR13 -0.30 dB -16.43 dB 4:53 03-Days Are Numbers (The Traveller)
    DR12 -0.30 dB -13.14 dB 4:25 04-Sooner Or Later
    DR12 -0.30 dB -15.37 dB 5:23 05-Vulture Culture
    DR13 -0.30 dB -15.72 dB 3:49 06-Hawkeye
    DR12 -0.30 dB -14.12 dB 4:56 07-Somebody Out There
    DR12 -0.30 dB -15.57 dB 5:28 08-The Same Old Sun
    --------------------------------------------------------------------------------

    Number of tracks: 8
    Official DR value: DR12

    Samplerate: 44100 Hz
    Channels: 2
    Bits per sample: 16
    Bitrate: 863 kbps
    Codec: FLAC
    ================================================================================

    ////////////////////////////////////////////////////////////////////////////////////

    foobar2000 1.3.1 / Dynamic Range Meter 1.1.1
    log date: 2014-04-14 19:14:47

    --------------------------------------------------------------------------------
    Analyzed: Alan Parsons Project / Stereotomy
    --------------------------------------------------------------------------------

    DR Peak RMS Duration Track
    --------------------------------------------------------------------------------
    DR11 -0.20 dB -14.12 dB 7:18 01-Stereotomy
    DR12 -0.20 dB -14.24 dB 4:28 02-Beaujolais
    DR12 -0.20 dB -16.30 dB 5:00 03-Urbania (Instrumental)
    DR11 -0.20 dB -13.27 dB 4:39 04-Limelight
    DR12 -0.20 dB -14.19 dB 4:21 05-In The Real World
    DR11 -0.20 dB -13.90 dB 7:31 06-Where's The Walrus? (Instrumental)
    DR12 -0.20 dB -15.77 dB 6:20 07-Light Of The World
    DR13 -3.69 dB -21.79 dB 1:01 08-Chinese Whispers (Instrumental)
    DR10 -0.20 dB -12.61 dB 1:20 09-Stereotomy Two
    --------------------------------------------------------------------------------

    Number of tracks: 9
    Official DR value: DR11

    Samplerate: 44100 Hz
    Channels: 2
    Bits per sample: 16
    Bitrate: 895 kbps
    Codec: FLAC
    ================================================================================

    /////////////////////////////////////////////////////////////////////////////////////

    foobar2000 1.3.1 / Dynamic Range Meter 1.1.1
    log date: 2014-04-14 19:15:02

    --------------------------------------------------------------------------------
    Analyzed: Alan Parsons Project / Gaudi
    --------------------------------------------------------------------------------

    DR Peak RMS Duration Track
    --------------------------------------------------------------------------------
    DR11 -0.20 dB -15.03 dB 8:48 01-La Sagrada Familia
    DR9 -0.20 dB -11.38 dB 4:31 02-Too Late
    DR12 -0.20 dB -15.51 dB 5:54 03-Closer To Heaven
    DR9 -0.20 dB -12.96 dB 5:49 04-Standing On Higher Ground
    DR10 -0.20 dB -12.19 dB 4:26 05-Money Talks
    DR11 -0.20 dB -15.36 dB 6:27 06-Inside Looking Out
    DR11 -0.20 dB -14.66 dB 3:53 07-Paseo De Gracia (Instrumental)
    --------------------------------------------------------------------------------

    Number of tracks: 7
    Official DR value: DR10

    Samplerate: 44100 Hz
    Channels: 2
    Bits per sample: 16
    Bitrate: 857 kbps
    Codec: FLAC
    ================================================================================

    ////////////////////////////////////////////////////////////////////////////////////////

    foobar2000 1.3.1 / Dynamic Range Meter 1.1.1
    log date: 2014-04-14 19:15:15

    --------------------------------------------------------------------------------
    Analyzed: Alan Parsons Project / The Sicilian Defence
    --------------------------------------------------------------------------------

    DR Peak RMS Duration Track
    --------------------------------------------------------------------------------
    DR10 -0.20 dB -13.04 dB 5:01 01-P - K4
    DR14 -0.47 dB -18.05 dB 6:23 02-P - QB4
    DR10 -0.20 dB -12.19 dB 3:08 03-Kt - KB3
    DR12 -0.20 dB -19.15 dB 1:16 04-...Kt - QB3
    DR14 -0.48 dB -18.51 dB 3:55 05-P - Q4
    DR11 -0.20 dB -13.05 dB 3:28 06-P x P
    DR13 -0.20 dB -16.04 dB 4:02 07-Kt x P
    DR9 -0.46 dB -13.10 dB 0:54 08-Kt - B3
    DR12 -0.20 dB -14.79 dB 8:16 09-Kt - QB3
    DR10 -0.20 dB -15.32 dB 3:30 10-P - Q3
    --------------------------------------------------------------------------------

    Number of tracks: 10
    Official DR value: DR12

    Samplerate: 44100 Hz
    Channels: 2
    Bits per sample: 16
    Bitrate: 713 kbps
    Codec: FLAC
    ================================================================================

    #####################################################







    [свернуть]

    Alan Parsons Project - Sirius



    Скрытый текст (вы должны войти под своим логином или зарегистрироваться и иметь 5 сообщение(ий)):
    У вас нет прав чтобы видеть скрытый текст, содержащийся здесь.


  10. 5 пользователя(ей) сказали cпасибо:

    Coroed (10.10.2019), Puharik (11.10.2019), vlad56 (12.10.2019), Yuraved (11.10.2019), Старец (12.10.2019)

  11. #6
    Супер модератор Array Аватар для aheron
    Регистрация
    11.06.2018
    Сообщений
    583
    Сказал(а) спасибо
    4,395
    Поблагодарили 3,342 раз(а)
    в 540 сообщениях
    Онлайн
    1 Нед 4 Дней 11 ч 14 мин 30 сек
    В среднем
    4 мин 56 сек

    ••• Log EAC •••

    Exact Audio Copy V1.0 beta 3 from 29. August 2011

    EAC extraction logfile from 6. April 2014, 17:21

    Alan Parsons Project / Tales Of Mystery And Imagination

    Used drive : PLEXTOR BD-R PX-B950SA Adapter: 6 ID: 0

    Read mode : Secure
    Utilize accurate stream : Yes
    Defeat audio cache : Yes
    Make use of C2 pointers : No

    Read offset correction : 6
    Overread into Lead-In and Lead-Out : No
    Fill up missing offset samples with silence : Yes
    Delete leading and trailing silent blocks : No
    Null samples used in CRC calculations : Yes
    Used interface : Native Win32 interface for Win NT & 2000

    Used output format : Internal WAV Routines
    Sample format : 44.100 Hz; 16 Bit; Stereo


    TOC of the extracted CD

    Track | Start | Length | Start sector | End sector
    ---------------------------------------------------------
    1 | 0:00.33 | 4:13.72 | 33 | 19079
    2 | 4:14.30 | 3:57.63 | 19080 | 36917
    3 | 8:12.18 | 4:38.55 | 36918 | 57822
    4 | 12:50.73 | 4:33.37 | 57823 | 78334
    5 | 17:24.35 | 4:20.65 | 78335 | 97899
    6 | 21:45.25 | 7:02.38 | 97900 | 129587
    7 | 28:47.63 | 2:39.47 | 129588 | 141559
    8 | 31:27.35 | 1:00.30 | 141560 | 146089
    9 | 32:27.65 | 4:36.13 | 146090 | 166802
    10 | 37:04.03 | 0:51.22 | 166803 | 170649
    11 | 37:55.25 | 4:46.45 | 170650 | 192144


    Range status and errors

    Selected range

    Filename C:\Users\Meijin\Desktop\Lossless Galaxy ALLexxess\Alan Parsons Project\2014 Complete Albums Collection (11CD Box Set RCA Records)\1976 Tales Of Mystery And Imagination\Alan Parsons Project - Tales Of Mystery And Imagination.wav

    Peak level 97.7 %
    Extraction speed 7.0 X
    Range quality 100.0 %
    Test CRC 9E9A51AA
    Copy CRC 9E9A51AA
    Copy OK

    No errors occurred


    AccurateRip summary

    Track 1 accurately ripped (confidence 102) [D31EEADE] (AR v2)
    Track 2 accurately ripped (confidence 101) [AF1EDA12] (AR v2)
    Track 3 accurately ripped (confidence 102) [03EF6B8C] (AR v2)
    Track 4 accurately ripped (confidence 101) [FA6D9246] (AR v2)
    Track 5 accurately ripped (confidence 100) [6A3239D7] (AR v2)
    Track 6 accurately ripped (confidence 100) [C97BE116] (AR v2)
    Track 7 accurately ripped (confidence 102) [8A3777DB] (AR v2)
    Track 8 accurately ripped (confidence 102) [16947225] (AR v2)
    Track 9 accurately ripped (confidence 101) [63DCB6E9] (AR v2)
    Track 10 accurately ripped (confidence 101) [BB31914A] (AR v2)
    Track 11 accurately ripped (confidence 100) [89775C4B] (AR v2)

    All tracks accurately ripped

    End of status report

    ==== Log checksum C095CC567FB2D2CD5A724F283584D7853CD6574030075ECAA036712262A8A10F ====

    //////////////////////////////////////////////////////////////////////////////////////////

    Exact Audio Copy V1.0 beta 3 from 29. August 2011

    EAC extraction logfile from 6. April 2014, 16:52

    Alan Parsons Project / I Robot

    Used drive : PLEXTOR BD-R PX-B950SA Adapter: 6 ID: 0

    Read mode : Secure
    Utilize accurate stream : Yes
    Defeat audio cache : Yes
    Make use of C2 pointers : No

    Read offset correction : 6
    Overread into Lead-In and Lead-Out : No
    Fill up missing offset samples with silence : Yes
    Delete leading and trailing silent blocks : No
    Null samples used in CRC calculations : Yes
    Used interface : Native Win32 interface for Win NT & 2000

    Used output format : Internal WAV Routines
    Sample format : 44.100 Hz; 16 Bit; Stereo


    TOC of the extracted CD

    Track | Start | Length | Start sector | End sector
    ---------------------------------------------------------
    1 | 0:00.00 | 6:02.37 | 0 | 27186
    2 | 6:02.37 | 3:23.26 | 27187 | 42437
    3 | 9:25.63 | 4:05.50 | 42438 | 60862
    4 | 13:31.38 | 3:53.14 | 60863 | 78351
    5 | 17:24.52 | 4:25.56 | 78352 | 98282
    6 | 21:50.33 | 5:23.06 | 98283 | 122513
    7 | 27:13.39 | 3:22.32 | 122514 | 137695
    8 | 30:35.71 | 3:57.12 | 137696 | 155482
    9 | 34:33.08 | 3:12.35 | 155483 | 169917
    10 | 37:45.43 | 3:31.68 | 169918 | 185810


    Range status and errors

    Selected range

    Filename C:\Users\Meijin\Desktop\Lossless Galaxy ALLexxess\Alan Parsons Project\2014 Complete Albums Collection (11CD Box Set RCA Records)\1977 I Robot\Alan Parsons Project - I Robot.wav

    Peak level 98.8 %
    Extraction speed 7.0 X
    Range quality 100.0 %
    Test CRC 70D99858
    Copy CRC 70D99858
    Copy OK

    No errors occurred


    AccurateRip summary

    Track 1 accurately ripped (confidence 4) [0AF93DF9] (AR v2)
    Track 2 accurately ripped (confidence 4) [C3CB308F] (AR v2)
    Track 3 accurately ripped (confidence 4) [97CE4C7E] (AR v2)
    Track 4 accurately ripped (confidence 4) [83A93DB9] (AR v2)
    Track 5 accurately ripped (confidence 4) [CFCC5DB5] (AR v2)
    Track 6 accurately ripped (confidence 4) [686C038A] (AR v2)
    Track 7 accurately ripped (confidence 4) [468F1641] (AR v2)
    Track 8 accurately ripped (confidence 4) [CAB0AF78] (AR v2)
    Track 9 accurately ripped (confidence 4) [E1E9E9FD] (AR v2)
    Track 10 accurately ripped (confidence 4) [5181A252] (AR v2)

    All tracks accurately ripped

    End of status report

    ==== Log checksum E857FB225232D16C26337B0D5E6C4BDA9F65343145DB6979BFD3C4AF31511ED8 ====

    /////////////////////////////////////////////////////////////////////////////////////////////

    Exact Audio Copy V1.0 beta 3 from 29. August 2011

    EAC extraction logfile from 6. April 2014, 16:27

    Alan Parsons Project / Pyramid

    Used drive : PLEXTOR BD-R PX-B950SA Adapter: 6 ID: 0

    Read mode : Secure
    Utilize accurate stream : Yes
    Defeat audio cache : Yes
    Make use of C2 pointers : No

    Read offset correction : 6
    Overread into Lead-In and Lead-Out : No
    Fill up missing offset samples with silence : Yes
    Delete leading and trailing silent blocks : No
    Null samples used in CRC calculations : Yes
    Used interface : Native Win32 interface for Win NT & 2000

    Used output format : Internal WAV Routines
    Sample format : 44.100 Hz; 16 Bit; Stereo


    TOC of the extracted CD

    Track | Start | Length | Start sector | End sector
    ---------------------------------------------------------
    1 | 0:00.00 | 2:14.59 | 0 | 10108
    2 | 2:14.59 | 3:40.32 | 10109 | 26640
    3 | 5:55.16 | 4:22.25 | 26641 | 46315
    4 | 10:17.41 | 4:16.57 | 46316 | 65572
    5 | 14:34.23 | 5:06.68 | 65573 | 88590
    6 | 19:41.16 | 5:30.50 | 88591 | 113390
    7 | 25:11.66 | 2:42.74 | 113391 | 125614
    8 | 27:54.65 | 4:20.00 | 125615 | 145114
    9 | 32:14.65 | 5:44.67 | 145115 | 170981


    Range status and errors

    Selected range

    Filename C:\Users\Meijin\Desktop\Lossless Galaxy ALLexxess\Alan Parsons Project\2014 Complete Albums Collection (11CD Box Set RCA Records)\1978 Pyramid\Alan Parsons Project - Pyramid.wav

    Peak level 97.7 %
    Extraction speed 6.8 X
    Range quality 100.0 %
    Test CRC C6909222
    Copy CRC C6909222
    Copy OK

    No errors occurred


    AccurateRip summary

    Track 1 accurately ripped (confidence 2) [C5C05605] (AR v2)
    Track 2 accurately ripped (confidence 2) [D466CBF4] (AR v2)
    Track 3 accurately ripped (confidence 2) [CB9BA466] (AR v2)
    Track 4 accurately ripped (confidence 2) [F8FFC910] (AR v2)
    Track 5 accurately ripped (confidence 2) [238994E7] (AR v2)
    Track 6 accurately ripped (confidence 2) [2306EA8B] (AR v2)
    Track 7 accurately ripped (confidence 2) [0DB7D323] (AR v2)
    Track 8 accurately ripped (confidence 2) [C61A0932] (AR v2)
    Track 9 accurately ripped (confidence 2) [BAB8B9E9] (AR v2)

    All tracks accurately ripped

    End of status report

    ==== Log checksum 1208DAE50172370B9DC6C27B63EF41A07D174A621912F33370A7C10016FC9ACD ====

    //////////////////////////////////////////////////////////////////////////////////////////

    Exact Audio Copy V1.0 beta 3 from 29. August 2011

    EAC extraction logfile from 6. April 2014, 16:02

    Alan Parsons Project / Eve

    Used drive : PLEXTOR BD-R PX-B950SA Adapter: 6 ID: 0

    Read mode : Secure
    Utilize accurate stream : Yes
    Defeat audio cache : Yes
    Make use of C2 pointers : No

    Read offset correction : 6
    Overread into Lead-In and Lead-Out : No
    Fill up missing offset samples with silence : Yes
    Delete leading and trailing silent blocks : No
    Null samples used in CRC calculations : Yes
    Used interface : Native Win32 interface for Win NT & 2000

    Used output format : Internal WAV Routines
    Sample format : 44.100 Hz; 16 Bit; Stereo


    TOC of the extracted CD

    Track | Start | Length | Start sector | End sector
    ---------------------------------------------------------
    1 | 0:00.00 | 5:08.63 | 0 | 23162
    2 | 5:08.63 | 3:48.52 | 23163 | 40314
    3 | 8:57.40 | 3:53.50 | 40315 | 57839
    4 | 12:51.15 | 3:43.01 | 57840 | 74565
    5 | 16:34.16 | 3:55.60 | 74566 | 92250
    6 | 20:30.01 | 4:52.63 | 92251 | 114213
    7 | 25:22.64 | 3:37.30 | 114214 | 130518
    8 | 29:00.19 | 4:43.43 | 130519 | 151786
    9 | 33:43.62 | 6:00.19 | 151787 | 178805


    Range status and errors

    Selected range

    Filename C:\Users\Meijin\Desktop\Lossless Galaxy ALLexxess\Alan Parsons Project\2014 Complete Albums Collection (11CD Box Set RCA Records)\1979 Eve\Alan Parsons Project - Eve.wav

    Peak level 97.7 %
    Extraction speed 6.8 X
    Range quality 99.9 %
    Test CRC 648CB8F8
    Copy CRC 648CB8F8
    Copy OK

    No errors occurred


    AccurateRip summary

    Track 1 accurately ripped (confidence 2) [4B45F687] (AR v2)
    Track 2 accurately ripped (confidence 2) [E1D35999] (AR v2)
    Track 3 accurately ripped (confidence 2) [ABCC576C] (AR v2)
    Track 4 accurately ripped (confidence 2) [B16C26D1] (AR v2)
    Track 5 accurately ripped (confidence 2) [341CC216] (AR v2)
    Track 6 accurately ripped (confidence 2) [CBE1B4DB] (AR v2)
    Track 7 accurately ripped (confidence 2) [7600F845] (AR v2)
    Track 8 accurately ripped (confidence 2) [3C612018] (AR v2)
    Track 9 accurately ripped (confidence 2) [C15B8293] (AR v2)

    All tracks accurately ripped

    End of status report

    ==== Log checksum CC0C1C4F73B8264DAD9DC09C9A3E0197011312AD304F972950CFEB5E0E754795 ====

    /////////////////////////////////////////////////////////////////////////////////////////////

    Exact Audio Copy V1.0 beta 3 from 29. August 2011

    EAC extraction logfile from 6. April 2014, 12:44

    Alan Parsons Project / The Turn Of A Friendly Card

    Used drive : PLEXTOR BD-R PX-B950SA Adapter: 6 ID: 0

    Read mode : Secure
    Utilize accurate stream : Yes
    Defeat audio cache : Yes
    Make use of C2 pointers : No

    Read offset correction : 6
    Overread into Lead-In and Lead-Out : No
    Fill up missing offset samples with silence : Yes
    Delete leading and trailing silent blocks : No
    Null samples used in CRC calculations : Yes
    Used interface : Native Win32 interface for Win NT & 2000

    Used output format : Internal WAV Routines
    Sample format : 44.100 Hz; 16 Bit; Stereo


    TOC of the extracted CD

    Track | Start | Length | Start sector | End sector
    ---------------------------------------------------------
    1 | 0:00.00 | 5:01.28 | 0 | 22602
    2 | 5:01.28 | 4:24.18 | 22603 | 42420
    3 | 9:25.46 | 5:14.48 | 42421 | 66018
    4 | 14:40.19 | 4:52.37 | 66019 | 87955
    5 | 19:32.56 | 4:34.07 | 87956 | 108512
    6 | 24:06.63 | 2:44.51 | 108513 | 120863
    7 | 26:51.39 | 3:15.50 | 120864 | 135538
    8 | 30:07.14 | 2:58.57 | 135539 | 148945
    9 | 33:05.71 | 4:07.02 | 148946 | 167472
    10 | 37:12.73 | 3:22.32 | 167473 | 182654


    Range status and errors

    Selected range

    Filename C:\Users\Meijin\Desktop\Lossless Galaxy ALLexxess\Alan Parsons Project\2014 Complete Albums Collection (11CD Box Set RCA Records)\1980 The Turn Of A Friendly Card\Alan Parsons Project - The Turn Of A Friendly Card.wav

    Peak level 95.5 %
    Extraction speed 6.9 X
    Range quality 100.0 %
    Test CRC 839C0990
    Copy CRC 839C0990
    Copy OK

    No errors occurred


    AccurateRip summary

    Track 1 accurately ripped (confidence 2) [6691E2A9] (AR v2)
    Track 2 accurately ripped (confidence 2) [6CD68555] (AR v2)
    Track 3 accurately ripped (confidence 2) [D73C39B2] (AR v2)
    Track 4 accurately ripped (confidence 2) [EF26C2C8] (AR v2)
    Track 5 accurately ripped (confidence 2) [6DE0FEA2] (AR v2)
    Track 6 accurately ripped (confidence 2) [A6E649E9] (AR v2)
    Track 7 accurately ripped (confidence 2) [626A384E] (AR v2)
    Track 8 accurately ripped (confidence 2) [9E103CCC] (AR v2)
    Track 9 accurately ripped (confidence 2) [14B6EF1A] (AR v2)
    Track 10 accurately ripped (confidence 2) [6B4841BF] (AR v2)

    All tracks accurately ripped

    End of status report

    ==== Log checksum AF754D484F07065521C92E00740CCB840C4642C11290BCA7C9630805A70E18AE ====

    //////////////////////////////////////////////////////////////////////////////////////////////

    Exact Audio Copy V1.0 beta 3 from 29. August 2011

    EAC extraction logfile from 6. April 2014, 12:06

    Alan Parsons Project / Eye In The Sky

    Used drive : PLEXTOR BD-R PX-B950SA Adapter: 6 ID: 0

    Read mode : Secure
    Utilize accurate stream : Yes
    Defeat audio cache : Yes
    Make use of C2 pointers : No

    Read offset correction : 6
    Overread into Lead-In and Lead-Out : No
    Fill up missing offset samples with silence : Yes
    Delete leading and trailing silent blocks : No
    Null samples used in CRC calculations : Yes
    Used interface : Native Win32 interface for Win NT & 2000

    Used output format : Internal WAV Routines
    Sample format : 44.100 Hz; 16 Bit; Stereo


    TOC of the extracted CD

    Track | Start | Length | Start sector | End sector
    ---------------------------------------------------------
    1 | 0:00.00 | 1:55.51 | 0 | 8675
    2 | 1:55.51 | 4:36.21 | 8676 | 29396
    3 | 6:31.72 | 4:51.21 | 29397 | 51242
    4 | 11:23.18 | 2:10.09 | 51243 | 61001
    5 | 13:33.27 | 7:21.33 | 61002 | 94109
    6 | 20:54.60 | 4:21.50 | 94110 | 113734
    7 | 25:16.35 | 4:52.42 | 113735 | 135676
    8 | 30:09.02 | 3:34.71 | 135677 | 151797
    9 | 33:43.73 | 3:54.20 | 151798 | 169367
    10 | 37:38.18 | 5:06.03 | 169368 | 192320


    Range status and errors

    Selected range

    Filename C:\Users\Meijin\Desktop\Lossless Galaxy ALLexxess\Alan Parsons Project\2014 Complete Albums Collection (11CD Box Set RCA Records)\1982 Eye In The Sky\Alan Parsons Project - Eye In The Sky.wav

    Peak level 96.6 %
    Extraction speed 7.0 X
    Range quality 100.0 %
    Test CRC C3B57C46
    Copy CRC C3B57C46
    Copy OK

    No errors occurred


    AccurateRip summary

    Track 1 accurately ripped (confidence 2) [717D0ED1] (AR v2)
    Track 2 accurately ripped (confidence 2) [F97807BA] (AR v2)
    Track 3 accurately ripped (confidence 2) [B9A714D7] (AR v2)
    Track 4 accurately ripped (confidence 2) [F6A228D7] (AR v2)
    Track 5 accurately ripped (confidence 2) [967892B9] (AR v2)
    Track 6 accurately ripped (confidence 2) [400560BD] (AR v2)
    Track 7 accurately ripped (confidence 2) [4BE489CA] (AR v2)
    Track 8 accurately ripped (confidence 2) [5EAA34F3] (AR v2)
    Track 9 accurately ripped (confidence 2) [49B584EA] (AR v2)
    Track 10 accurately ripped (confidence 2) [89C2BD14] (AR v2)

    All tracks accurately ripped

    End of status report

    ==== Log checksum C9A5F8A1EA54AB0348BEC5D8A4733FEB63A4CAB3C8AAEA2516C4C1828C4DF314 ====

    /////////////////////////////////////////////////////////////////////////////////////

    Exact Audio Copy V1.0 beta 3 from 29. August 2011

    EAC extraction logfile from 6. April 2014, 11:33

    Alan Parsons Project / Ammonia Avenue

    Used drive : PLEXTOR BD-R PX-B950SA Adapter: 6 ID: 0

    Read mode : Secure
    Utilize accurate stream : Yes
    Defeat audio cache : Yes
    Make use of C2 pointers : No

    Read offset correction : 6
    Overread into Lead-In and Lead-Out : No
    Fill up missing offset samples with silence : Yes
    Delete leading and trailing silent blocks : No
    Null samples used in CRC calculations : Yes
    Used interface : Native Win32 interface for Win NT & 2000

    Used output format : Internal WAV Routines
    Sample format : 44.100 Hz; 16 Bit; Stereo


    TOC of the extracted CD

    Track | Start | Length | Start sector | End sector
    ---------------------------------------------------------
    1 | 0:00.00 | 5:03.55 | 0 | 22779
    2 | 5:03.55 | 3:21.29 | 22780 | 37883
    3 | 8:25.09 | 3:37.25 | 37884 | 54183
    4 | 12:02.34 | 4:35.19 | 54184 | 74827
    5 | 16:37.53 | 4:11.64 | 74828 | 93716
    6 | 20:49.42 | 4:23.47 | 93717 | 113488
    7 | 25:13.14 | 4:26.67 | 113489 | 133505
    8 | 29:40.06 | 3:57.15 | 133506 | 151295
    9 | 33:37.21 | 6:36.66 | 151296 | 181061


    Range status and errors

    Selected range

    Filename C:\Users\Meijin\Desktop\Lossless Galaxy ALLexxess\Alan Parsons Project\2014 Complete Albums Collection (11CD Box Set RCA Records)\1984 Ammonia Avenue\Alan Parsons Project - Ammonia Avenue.wav

    Peak level 100.0 %
    Extraction speed 6.9 X
    Range quality 100.0 %
    Test CRC 7E9D1A52
    Copy CRC 7E9D1A52
    Copy OK

    No errors occurred


    AccurateRip summary

    Track 1 accurately ripped (confidence 2) [3B2CB8F4] (AR v2)
    Track 2 accurately ripped (confidence 2) [A60E8DE0] (AR v2)
    Track 3 accurately ripped (confidence 2) [44CCC67C] (AR v2)
    Track 4 accurately ripped (confidence 2) [3AF15939] (AR v2)
    Track 5 accurately ripped (confidence 2) [14265DA8] (AR v2)
    Track 6 accurately ripped (confidence 2) [1AFD417C] (AR v2)
    Track 7 accurately ripped (confidence 2) [3C242FDC] (AR v2)
    Track 8 accurately ripped (confidence 2) [7AC7E6E6] (AR v2)
    Track 9 accurately ripped (confidence 2) [84919606] (AR v2)

    All tracks accurately ripped

    End of status report

    ==== Log checksum 2C46DC6FCF378D6CF3A0241210532562E13EA7254CAD1CE12F2430F59267C36A ====

    ////////////////////////////////////////////////////////////////////////////////////////////

    Exact Audio Copy V1.0 beta 3 from 29. August 2011

    EAC extraction logfile from 6. April 2014, 11:07

    Alan Parsons Project / Vulture Culture

    Used drive : PLEXTOR BD-R PX-B950SA Adapter: 6 ID: 0

    Read mode : Secure
    Utilize accurate stream : Yes
    Defeat audio cache : Yes
    Make use of C2 pointers : No

    Read offset correction : 6
    Overread into Lead-In and Lead-Out : No
    Fill up missing offset samples with silence : Yes
    Delete leading and trailing silent blocks : No
    Null samples used in CRC calculations : Yes
    Used interface : Native Win32 interface for Win NT & 2000

    Used output format : Internal WAV Routines
    Sample format : 44.100 Hz; 16 Bit; Stereo


    TOC of the extracted CD

    Track | Start | Length | Start sector | End sector
    ---------------------------------------------------------
    1 | 0:00.00 | 4:29.22 | 0 | 20196
    2 | 4:29.22 | 4:37.71 | 20197 | 41042
    3 | 9:07.18 | 4:53.17 | 41043 | 63034
    4 | 14:00.35 | 4:24.40 | 63035 | 82874
    5 | 18:25.00 | 5:22.61 | 82875 | 107085
    6 | 23:47.61 | 3:49.23 | 107086 | 124283
    7 | 27:37.09 | 4:56.04 | 124284 | 146487
    8 | 32:33.13 | 5:28.06 | 146488 | 171093


    Range status and errors

    Selected range

    Filename C:\Users\Meijin\Desktop\Lossless Galaxy ALLexxess\Alan Parsons Project\2014 Complete Albums Collection (11CD Box Set RCA Records)\1984 Vulture Culture\Alan Parsons Project - Vulture Culture.wav

    Peak level 96.6 %
    Extraction speed 6.8 X
    Range quality 100.0 %
    Test CRC 41004C53
    Copy CRC 41004C53
    Copy OK

    No errors occurred


    AccurateRip summary

    Track 1 accurately ripped (confidence 2) [F53B90C8] (AR v2)
    Track 2 accurately ripped (confidence 2) [927849AD] (AR v2)
    Track 3 accurately ripped (confidence 2) [2F13CE8A] (AR v2)
    Track 4 accurately ripped (confidence 2) [365EC795] (AR v2)
    Track 5 accurately ripped (confidence 2) [41C0263B] (AR v2)
    Track 6 accurately ripped (confidence 2) [9004B6AE] (AR v2)
    Track 7 accurately ripped (confidence 2) [7047C481] (AR v2)
    Track 8 accurately ripped (confidence 2) [BAF3F144] (AR v2)

    All tracks accurately ripped

    End of status report

    ==== Log checksum 15B2E54B622682AEF655EA6B5820EB17329A63A245409992513D21730D3A84C3 ====

    /////////////////////////////////////////////////////////////////////////////////////////////

    Exact Audio Copy V1.0 beta 3 from 29. August 2011

    EAC extraction logfile from 6. April 2014, 10:21

    Alan Parsons Project / Stereotomy

    Used drive : PLEXTOR BD-R PX-B950SA Adapter: 6 ID: 0

    Read mode : Secure
    Utilize accurate stream : Yes
    Defeat audio cache : Yes
    Make use of C2 pointers : No

    Read offset correction : 6
    Overread into Lead-In and Lead-Out : No
    Fill up missing offset samples with silence : Yes
    Delete leading and trailing silent blocks : No
    Null samples used in CRC calculations : Yes
    Used interface : Native Win32 interface for Win NT & 2000

    Used output format : Internal WAV Routines
    Sample format : 44.100 Hz; 16 Bit; Stereo


    TOC of the extracted CD

    Track | Start | Length | Start sector | End sector
    ---------------------------------------------------------
    1 | 0:00.00 | 7:17.53 | 0 | 32827
    2 | 7:17.53 | 4:27.58 | 32828 | 52910
    3 | 11:45.36 | 4:59.42 | 52911 | 75377
    4 | 16:45.03 | 4:38.69 | 75378 | 96296
    5 | 21:23.72 | 4:21.04 | 96297 | 115875
    6 | 25:45.01 | 7:30.57 | 115876 | 149682
    7 | 33:15.58 | 6:19.60 | 149683 | 178167
    8 | 39:35.43 | 1:01.03 | 178168 | 182745
    9 | 40:36.46 | 1:20.25 | 182746 | 188770


    Range status and errors

    Selected range

    Filename C:\Users\Meijin\Desktop\Lossless Galaxy ALLexxess\Alan Parsons Project\2014 Complete Albums Collection (11CD Box Set RCA Records)\1985 Stereotomy\Alan Parsons Project - Stereotomy.wav

    Peak level 97.7 %
    Extraction speed 7.0 X
    Range quality 100.0 %
    Test CRC 812D3352
    Copy CRC 812D3352
    Copy OK

    No errors occurred


    AccurateRip summary

    Track 1 accurately ripped (confidence 2) [E92A8AE9] (AR v2)
    Track 2 accurately ripped (confidence 2) [EE565BC4] (AR v2)
    Track 3 accurately ripped (confidence 2) [2367D501] (AR v2)
    Track 4 accurately ripped (confidence 2) [10C0244B] (AR v2)
    Track 5 accurately ripped (confidence 2) [2B7F54FC] (AR v2)
    Track 6 accurately ripped (confidence 2) [956C3EE9] (AR v2)
    Track 7 accurately ripped (confidence 2) [CC1E6B64] (AR v2)
    Track 8 accurately ripped (confidence 2) [1394C645] (AR v2)
    Track 9 accurately ripped (confidence 2) [3C756FFB] (AR v2)

    All tracks accurately ripped

    End of status report

    ==== Log checksum 8043EDB2722137DCA51B55D13BFB8BF726FAA1786A4EFBC3E739E1AF334698D6 ====

    ////////////////////////////////////////////////////////////////////////////////////////////////

    Exact Audio Copy V1.0 beta 3 from 29. August 2011

    EAC extraction logfile from 6. April 2014, 9:56

    Alan Parsons Project / Gaudi

    Used drive : PLEXTOR BD-R PX-B950SA Adapter: 6 ID: 0

    Read mode : Secure
    Utilize accurate stream : Yes
    Defeat audio cache : Yes
    Make use of C2 pointers : No

    Read offset correction : 6
    Overread into Lead-In and Lead-Out : No
    Fill up missing offset samples with silence : Yes
    Delete leading and trailing silent blocks : No
    Null samples used in CRC calculations : Yes
    Used interface : Native Win32 interface for Win NT & 2000

    Used output format : Internal WAV Routines
    Sample format : 44.100 Hz; 16 Bit; Stereo


    TOC of the extracted CD

    Track | Start | Length | Start sector | End sector
    ---------------------------------------------------------
    1 | 0:00.00 | 8:48.10 | 0 | 39609
    2 | 8:48.10 | 4:30.63 | 39610 | 59922
    3 | 13:18.73 | 5:53.66 | 59923 | 86463
    4 | 19:12.64 | 5:48.50 | 86464 | 112613
    5 | 25:01.39 | 4:26.29 | 112614 | 132592
    6 | 29:27.68 | 6:26.50 | 132593 | 161592
    7 | 35:54.43 | 3:53.23 | 161593 | 179090


    Range status and errors

    Selected range

    Filename C:\Users\Meijin\Desktop\Lossless Galaxy ALLexxess\Alan Parsons Project\2014 Complete Albums Collection (11CD Box Set RCA Records)\1987 Gaudi\Alan Parsons Project - Gaudi.wav

    Peak level 97.7 %
    Extraction speed 6.9 X
    Range quality 100.0 %
    Test CRC 98731053
    Copy CRC 98731053
    Copy OK

    No errors occurred


    AccurateRip summary

    Track 1 accurately ripped (confidence 2) [BACA711F] (AR v2)
    Track 2 accurately ripped (confidence 2) [AEF8EF3D] (AR v2)
    Track 3 accurately ripped (confidence 2) [020BBCDE] (AR v2)
    Track 4 accurately ripped (confidence 2) [B65B90A3] (AR v2)
    Track 5 accurately ripped (confidence 2) [8DBB2AAD] (AR v2)
    Track 6 accurately ripped (confidence 2) [FA1036DD] (AR v2)
    Track 7 accurately ripped (confidence 2) [E8EFAE00] (AR v2)

    All tracks accurately ripped

    End of status report

    ==== Log checksum 1838E6B335AB89998135A9E2C7E7DCBF5BFE90D7D87DA1428D66AF4B5032350E ====

    //////////////////////////////////////////////////////////////////////////////////////////////

    Exact Audio Copy V1.0 beta 3 from 29. August 2011

    EAC extraction logfile from 6. April 2014, 9:23

    Alan Parsons Project / The Sicilian Defence

    Used drive : PLEXTOR BD-R PX-B950SA Adapter: 6 ID: 0

    Read mode : Secure
    Utilize accurate stream : Yes
    Defeat audio cache : Yes
    Make use of C2 pointers : No

    Read offset correction : 6
    Overread into Lead-In and Lead-Out : No
    Fill up missing offset samples with silence : Yes
    Delete leading and trailing silent blocks : No
    Null samples used in CRC calculations : Yes
    Used interface : Native Win32 interface for Win NT & 2000

    Used output format : Internal WAV Routines
    Sample format : 44.100 Hz; 16 Bit; Stereo


    TOC of the extracted CD

    Track | Start | Length | Start sector | End sector
    ---------------------------------------------------------
    1 | 0:00.00 | 5:00.61 | 0 | 22560
    2 | 5:00.61 | 6:22.66 | 22561 | 51276
    3 | 11:23.52 | 3:07.38 | 51277 | 65339
    4 | 14:31.15 | 1:15.61 | 65340 | 71025
    5 | 15:47.01 | 3:54.69 | 71026 | 88644
    6 | 19:41.70 | 3:27.73 | 88645 | 104242
    7 | 23:09.68 | 4:01.39 | 104243 | 122356
    8 | 27:11.32 | 0:53.74 | 122357 | 126405
    9 | 28:05.31 | 8:16.00 | 126406 | 163605
    10 | 36:21.31 | 3:30.35 | 163606 | 179390


    Range status and errors

    Selected range

    Filename C:\Users\Meijin\Desktop\Lossless Galaxy ALLexxess\Alan Parsons Project\2014 Complete Albums Collection (11CD Box Set RCA Records)\2014 The Sicilian Defence (Unreleased)\Alan Parsons Project - The Sicilian Defence.wav

    Peak level 97.7 %
    Extraction speed 6.9 X
    Range quality 100.0 %
    Test CRC FD6FC17D
    Copy CRC FD6FC17D
    Copy OK

    No errors occurred


    AccurateRip summary

    Track 1 accurately ripped (confidence 2) [13410C9F] (AR v2)
    Track 2 accurately ripped (confidence 2) [F473633C] (AR v2)
    Track 3 accurately ripped (confidence 2) [C5DED4F5] (AR v2)
    Track 4 accurately ripped (confidence 2) [FD4B9A8B] (AR v2)
    Track 5 accurately ripped (confidence 2) [3146A396] (AR v2)
    Track 6 accurately ripped (confidence 2) [61AD109F] (AR v2)
    Track 7 accurately ripped (confidence 2) [0C84D949] (AR v2)
    Track 8 accurately ripped (confidence 2) [727B9F43] (AR v2)
    Track 9 accurately ripped (confidence 2) [7BFE0B44] (AR v2)
    Track 10 accurately ripped (confidence 2) [6B55DAB7] (AR v2)

    All tracks accurately ripped

    End of status report

    ==== Log checksum C81C0743763F2BAD4D9D73B4D6DBB0EAABEE8F7AE347D50675D3978887302DAC ====
    [свернуть]


  12. 5 пользователя(ей) сказали cпасибо:

    Coroed (10.10.2019), Puharik (11.10.2019), vlad56 (12.10.2019), Yuraved (11.10.2019), Старец (12.10.2019)

Информация о теме

Пользователи, просматривающие эту тему

Эту тему просматривают: 1 (пользователей: 0 , гостей: 1)

Социальные закладки

Социальные закладки

Ваши права

  • Вы не можете создавать новые темы
  • Вы не можете отвечать в темах
  • Вы не можете прикреплять вложения
  • Вы не можете редактировать свои сообщения
  •