Показано с 1 по 7 из 7

Тема: Sophie Ellis-Bextor

  1. #1
    Супер модератор Array Аватар для aheron
    Регистрация
    11.06.2018
    Сообщений
    610
    Сказал(а) спасибо
    4,478
    Поблагодарили 3,441 раз(а)
    в 567 сообщениях
    Онлайн
    1 Нед 4 Дней 22 ч 18 мин 27 сек
    В среднем
    4 мин 59 сек

    Sophie Ellis-Bextor






    Со́фи Мише́ль Э́ллис-Бе́кстор (англ. Sophie Michelle Ellis-Bextor, род. 10 апреля 1979 года, Ковентри, Уэст-Мидлендс, Англия) — британская певица, композитор и автор песен. Её музыка - это смесь таких стилей, как pop, disco, nu disco, synthpop и new wave 1980-х годов.
    Аристократическая бледность, ярко-красные губы и глубокие изумрудно-зеленые глаза… С такой привлекательной внешностью наша сегодняшняя героиня могла был легко потеснить на модных подиумах первых красавиц Европы и Америки. Однако, к радости многочисленных поклонников, Софи Эллис-Бекстор отличается не только запоминающейся внешностью, но красивым проникновенным голосом, который во многом и стал для нее гарантией успеха. Ее певческая карьера насчитывает второй десяток лет, но настоящий успех к этой исполнительнице пришел сравнительно недавно. Певица, ди-джей, модель и подлинная икона первоклассного стиля – все это о ней, об Софи Эллис-Бекстор.

  2. 3 пользователя(ей) сказали cпасибо:

    Puharik (08.01.2020), Yuraved (14.01.2020), Старец (08.01.2020)

  3. #2
    Супер модератор Array Аватар для aheron
    Регистрация
    11.06.2018
    Сообщений
    610
    Сказал(а) спасибо
    4,478
    Поблагодарили 3,441 раз(а)
    в 567 сообщениях
    Онлайн
    1 Нед 4 Дней 22 ч 18 мин 27 сек
    В среднем
    4 мин 59 сек
    Sophie Ellis-Bextor - Read My Lips (2001) [Special Edition 2002]






    Performer: Sophie Ellis-Bextor
    Album: Read My Lips [Special Edition]
    Label: Polydor. Made in the EU.
    Catalog #: 589 986-2
    Style: Pop, House, Dance
    Year: 2001(2002)
    Format: FLAC (image + .cue)
    Bitrate: lossless
    Covers: in archive
    Amount of tracks: 13
    Size ZIP: ~ 678 mb

    ••• Tracklist •••

    01. Sophie Ellis-Bextor - Murder On The Dancefloor [3:53]
    02. Sophie Ellis-Bextor - Take Me Home [4:10]
    03. Sophie Ellis-Bextor - Lover [3:26]
    04. Sophie Ellis-Bextor - Move This Mountain [4:47]
    05. Sophie Ellis-Bextor - Music Gets The Best Of Me [3:41]
    06. Sophie Ellis-Bextor - The Universe Is You [3:40]
    07. Sophie Ellis-Bextor - I Believe [4:06]
    08. Sophie Ellis-Bextor - Get Over You [3:18]
    09. Sophie Ellis-Bextor - By Chance [4:15]
    10. Sophie Ellis-Bextor - Is It Any Wonder [4:28]
    11. Sophie Ellis-Bextor - Leave The Others Alone [4:12]
    12. Sophie Ellis-Bextor - Everything Falls Into Place [3:47]
    13. Sophie Ellis-Bextor - Groovejet (If This Aint Love) [Live Version] [4:00]
    ------------------------------
    Total time: [51:43]

    Notes:
    =====================
    This special edition contains "Groovejet (If This Ain't Love) (Live Version)" , "Murder On The Dancefloor" , "Take Me Home" & "Get Over You".

    (P) 2001 Polydor Ltd except tracks 5, 8 & 13 (P) 2002
    (C) 2001 Polydor Ltd

    Spiller is not mentioned on the backcover as extra artist.
    [свернуть]

    ••• Log EAC + Log auCDtect + Dynamic Range Meter + Spectrum •••

    Exact Audio Copy V0.99 prebeta 5 from 4. May 2009

    EAC extraction logfile from 20. August 2011, 0:55

    Sophie Ellis-Bextor / Read My Lips

    Used drive : PIONEER DVD-RW DVR-112D Adapter: 2 ID: 0

    Read mode : Secure
    Utilize accurate stream : Yes
    Defeat audio cache : Yes
    Make use of C2 pointers : No

    Read offset correction : 48
    Overread into Lead-In and Lead-Out : No
    Fill up missing offset samples with silence : Yes
    Delete leading and trailing silent blocks : No
    Null samples used in CRC calculations : Yes
    Used interface : Installed external ASPI interface

    Used output format : User Defined Encoder
    Selected bitrate : 1024 kBit/s
    Quality : High
    Add ID3 tag : No
    Command line compressor : C:\Program Files (x86)\Exact Audio Copy\Flac\flac.exe
    Additional command line options : -5 -V -T "ARTIST=%a" -T "TITLE=%t" -T "ALBUM=%g" -T "DATE=%y" -T "TRACKNUMBER=%n" -T "GENRE=%m" -T "COMMENT=EAC FLAC -5" %s


    TOC of the extracted CD

    Track | Start | Length | Start sector | End sector
    ---------------------------------------------------------
    1 | 0:00.00 | 3:52.53 | 0 | 17452
    2 | 3:52.53 | 4:10.06 | 17453 | 36208
    3 | 8:02.59 | 3:25.67 | 36209 | 51650
    4 | 11:28.51 | 4:47.28 | 51651 | 73203
    5 | 16:16.04 | 3:41.35 | 73204 | 89813
    6 | 19:57.39 | 3:40.16 | 89814 | 106329
    7 | 23:37.55 | 4:06.07 | 106330 | 124786
    8 | 27:43.62 | 3:18.15 | 124787 | 139651
    9 | 31:02.02 | 4:15.16 | 139652 | 158792
    10 | 35:17.18 | 4:28.17 | 158793 | 178909
    11 | 39:45.35 | 4:11.46 | 178910 | 197780
    12 | 43:57.06 | 3:46.49 | 197781 | 214779
    13 | 47:43.55 | 3:59.50 | 214780 | 232754


    Range status and errors

    Selected range

    Filename F:\Sophie Ellis-Bextor\2002 - Read My Lips (New Special Edition)\Sophie Ellis-Bextor - Read My Lips.wav

    Peak level 99.8 %
    Range quality 100.0 %
    Test CRC 6C6176F8
    Copy CRC 6C6176F8
    Copy OK

    No errors occurred


    AccurateRip summary

    Track 1 accurately ripped (confidence 49) [98A94B94]
    Track 2 accurately ripped (confidence 49) [5651DF69]
    Track 3 accurately ripped (confidence 49) [7A59BCCA]
    Track 4 accurately ripped (confidence 49) [B487886F]
    Track 5 accurately ripped (confidence 49) [8AFDDAFC]
    Track 6 accurately ripped (confidence 49) [5999A40B]
    Track 7 accurately ripped (confidence 49) [8CA3F1A2]
    Track 8 accurately ripped (confidence 50) [5ACACA33]
    Track 9 accurately ripped (confidence 49) [B9BC8D27]
    Track 10 accurately ripped (confidence 49) [80E469DC]
    Track 11 accurately ripped (confidence 49) [78194D11]
    Track 12 accurately ripped (confidence 49) [032E9EBB]
    Track 13 accurately ripped (confidence 49) [AD514552]

    All tracks accurately ripped

    End of status report

    //////////////////////////////////////////////////////////////////////////////

    -----------------------

    DON'T MODIFY THIS FILE

    -----------------------

    PERFORMER: auCDtect Task Manager, ver. 1.6.0 RC1 build 1.6.0.1
    Copyright (c) 2008-2010 y-soft. All rights reserved
    http://y-soft.org

    ANALYZER: auCDtect: CD records authenticity detector, version 0.8.2
    Copyright (c) 2004 Oleg Berngardt. All rights reserved.
    Copyright (c) 2004 Alexander Djourik. All rights reserved.


    FILE: Sophie Ellis-Bextor - Read My Lips.flac
    Size: 391942304 Hash: BB80C728AE14C61C4A13F7E55FDA7A21 Accuracy: -m0
    Conclusion: CDDA 100%
    Signature: 7983B07A700434D97C844965E8F0316EB5C00409

    ///////////////////////////////////////////////////////////////////////////////

    foobar2000 1.2.8 / Dynamic Range Meter 1.1.1
    log date: 2013-11-10 12:03:34

    --------------------------------------------------------------------------------
    Analyzed: Sophie Ellis-Bextor / Read My Lips
    --------------------------------------------------------------------------------

    DR Peak RMS Duration Track
    --------------------------------------------------------------------------------
    DR7 -0.10 dB -9.09 dB 3:53 01-Murder On The Dancefloor
    DR7 -0.10 dB -8.49 dB 4:10 02-Take Me Home
    DR7 -0.10 dB -9.13 dB 3:26 03-Lover
    DR7 -0.01 dB -9.10 dB 4:47 04-Move This Mountain
    DR6 -0.43 dB -8.45 dB 3:41 05-Music Gets The Best Of Me
    DR7 -0.10 dB -8.89 dB 3:40 06-The Universe Is You
    DR7 -0.10 dB -8.76 dB 4:06 07-I Believe
    DR6 -1.12 dB -8.66 dB 3:18 08-Get Over You
    DR7 -0.10 dB -8.87 dB 4:15 09-By Chance
    DR7 -0.10 dB -9.16 dB 4:28 10-Is It Any Wonder
    DR8 -0.10 dB -9.05 dB 4:12 11-Leave The Others Alone
    DR7 -0.10 dB -8.96 dB 3:47 12-Everything Falls Into Place
    DR6 -0.89 dB -8.11 dB 4:00 13-Groovejet (If This Aint Love) [Live Version]
    --------------------------------------------------------------------------------

    Number of tracks: 13
    Official DR value: DR7

    Samplerate: 44100 Hz
    Channels: 2
    Bits per sample: 16
    Bitrate: 1010 kbps
    Codec: FLAC
    ================================================== ==============================

    ///////////////////////////////////////////////////////////////////////////////

    [свернуть]

    «Read My Lips» — дебютный студийный альбом английской певицы Софи Эллис-Бекстор. Был выпущен 27 августа 2001 на лейбле Polydor Records.


    Sophie Ellis-Bextor - Get Over You



    Скрытый текст (вы должны войти под своим логином или зарегистрироваться и иметь 5 сообщение(ий)):
    У вас нет прав чтобы видеть скрытый текст, содержащийся здесь.


  4. 3 пользователя(ей) сказали cпасибо:

    Coroed (08.01.2020), Puharik (08.01.2020), Старец (09.01.2020)

  5. #3
    Супер модератор Array Аватар для aheron
    Регистрация
    11.06.2018
    Сообщений
    610
    Сказал(а) спасибо
    4,478
    Поблагодарили 3,441 раз(а)
    в 567 сообщениях
    Онлайн
    1 Нед 4 Дней 22 ч 18 мин 27 сек
    В среднем
    4 мин 59 сек
    Sophie Ellis-Bextor - Shoot From The Hip (2003)





    Performer: Sophie Ellis-Bextor
    Album: Shoot From The Hip
    Label: Polydor. Made in the EU.
    Catalog #: 9865839
    Style: House, Europop, Synth-pop
    Year: 2003
    Format: FLAC (image + .cue)
    Bitrate: lossless
    Covers: in archive
    Amount of tracks: 10
    Size ZIP: ~ 491 mb

    ••• Tracklist •••

    01. Sophie Ellis-Bextor - Mixed Up World [3:45]
    02. Sophie Ellis-Bextor - I Won't Change You [3:40]
    03. Sophie Ellis-Bextor - Nowhere Without You [4:53]
    04. Sophie Ellis-Bextor - Another Day [3:20]
    05. Sophie Ellis-Bextor - Party In My Head [3:34]
    06. Sophie Ellis-Bextor - Love It Is Love [3:29]
    07. Sophie Ellis-Bextor - You Get Yours [3:59]
    08. Sophie Ellis-Bextor - The Walls Keep Saying Your Name [4:24]
    09. Sophie Ellis-Bextor - I Am Not Good At Not Getting What I Want [3:33]
    10. Sophie Ellis-Bextor - Hello, Hello [4:23]
    ------------------------------
    Total time: [38:59]

    Notes:
    ================
    (p) & © 2003 Polydor Ltd (UK) a Universal Music Company.
    Made in the EU.
    NOT FOR SALE IN THE EU
    [свернуть]

    ••• Log EAC + Log auCDtect + Dynamic Range Meter + Spectrum •••

    Exact Audio Copy V0.99 prebeta 5 from 4. May 2009

    EAC extraction logfile from 20. August 2011, 1:10

    Sophie Ellis-Bextor / Shoot From The Hip

    Used drive : PIONEER DVD-RW DVR-112D Adapter: 2 ID: 0

    Read mode : Secure
    Utilize accurate stream : Yes
    Defeat audio cache : Yes
    Make use of C2 pointers : No

    Read offset correction : 48
    Overread into Lead-In and Lead-Out : No
    Fill up missing offset samples with silence : Yes
    Delete leading and trailing silent blocks : No
    Null samples used in CRC calculations : Yes
    Used interface : Installed external ASPI interface

    Used output format : User Defined Encoder
    Selected bitrate : 1024 kBit/s
    Quality : High
    Add ID3 tag : No
    Command line compressor : C:\Program Files (x86)\Exact Audio Copy\Flac\flac.exe
    Additional command line options : -5 -V -T "ARTIST=%a" -T "TITLE=%t" -T "ALBUM=%g" -T "DATE=%y" -T "TRACKNUMBER=%n" -T "GENRE=%m" -T "COMMENT=EAC FLAC -5" %s


    TOC of the extracted CD

    Track | Start | Length | Start sector | End sector
    ---------------------------------------------------------
    1 | 0:00.00 | 3:45.35 | 0 | 16909
    2 | 3:45.35 | 3:40.23 | 16910 | 33432
    3 | 7:25.58 | 4:52.39 | 33433 | 55371
    4 | 12:18.22 | 3:19.65 | 55372 | 70361
    5 | 15:38.12 | 3:34.08 | 70362 | 86419
    6 | 19:12.20 | 3:28.56 | 86420 | 102075
    7 | 22:41.01 | 3:58.46 | 102076 | 119971
    8 | 26:39.47 | 4:23.46 | 119972 | 139742
    9 | 31:03.18 | 3:32.66 | 139743 | 155708
    10 | 34:36.09 | 4:23.26 | 155709 | 175459


    Range status and errors

    Selected range

    Filename F:\Sophie Ellis-Bextor\2003 - Shoot From The Hip\Sophie Ellis-Bextor - Shoot From The Hip.wav

    Peak level 99.8 %
    Range quality 100.0 %
    Test CRC 366387EE
    Copy CRC 366387EE
    Copy OK

    No errors occurred


    AccurateRip summary

    Track 1 accurately ripped (confidence 31) [51BE320A]
    Track 2 accurately ripped (confidence 32) [2D5A6B60]
    Track 3 accurately ripped (confidence 31) [11AE8C56]
    Track 4 accurately ripped (confidence 34) [C1B2127E]
    Track 5 accurately ripped (confidence 33) [F62A5A2F]
    Track 6 accurately ripped (confidence 32) [042B0B63]
    Track 7 accurately ripped (confidence 32) [3AB68368]
    Track 8 accurately ripped (confidence 32) [A53AAD74]
    Track 9 accurately ripped (confidence 32) [310B7A5C]
    Track 10 accurately ripped (confidence 33) [A032FB00]

    All tracks accurately ripped

    End of status report

    /////////////////////////////////////////////////////////////////////////////////

    -----------------------

    DON'T MODIFY THIS FILE

    -----------------------

    PERFORMER: auCDtect Task Manager, ver. 1.6.0 RC1 build 1.6.0.1
    Copyright (c) 2008-2010 y-soft. All rights reserved
    http://y-soft.org

    ANALYZER: auCDtect: CD records authenticity detector, version 0.8.2
    Copyright (c) 2004 Oleg Berngardt. All rights reserved.
    Copyright (c) 2004 Alexander Djourik. All rights reserved.


    FILE: Sophie Ellis-Bextor - Shoot From The Hip.flac
    Size: 289585717 Hash: E42679B5767A070ABC65FC7C2DBCC5A5 Accuracy: -m0
    Conclusion: CDDA 100%
    Signature: 700828D27E80764DDADB1CECA35226D2A10B4D85

    //////////////////////////////////////////////////////////////////////////////

    foobar2000 1.2.8 / Dynamic Range Meter 1.1.1
    log date: 2013-11-10 18:04:48

    --------------------------------------------------------------------------------
    Analyzed: Sophie Ellis-Bextor / Shoot From The Hip
    --------------------------------------------------------------------------------

    DR Peak RMS Duration Track
    --------------------------------------------------------------------------------
    DR6 -0.01 dB -7.18 dB 3:45 01-Mixed Up World
    DR6 -0.01 dB -8.03 dB 3:40 02-I Won't Change You
    DR7 -0.13 dB -7.95 dB 4:53 03-Nowhere Without You
    DR6 -0.43 dB -7.27 dB 3:20 04-Another Day
    DR5 -0.26 dB -6.48 dB 3:34 05-Party In My Head
    DR6 -0.43 dB -7.36 dB 3:29 06-Love It Is Love
    DR6 -0.22 dB -7.09 dB 3:59 07-You Get Yours
    DR4 -0.89 dB -7.69 dB 4:24 08-The Walls Keep Saying Your Name
    DR5 -0.73 dB -7.11 dB 3:33 09-I Am Not Good At Not Getting What I Want
    DR6 -0.43 dB -7.07 dB 4:23 10-Hello, Hello
    --------------------------------------------------------------------------------

    Number of tracks: 10
    Official DR value: DR6

    Samplerate: 44100 Hz
    Channels: 2
    Bits per sample: 16
    Bitrate: 990 kbps
    Codec: FLAC
    ================================================== ==============================

    ///////////////////////////////////////////////////////////////////////////////

    [свернуть]

    Shoot from the Hip — второй студийный альбом английской певицы Софи Эллис-Бекстор. Был выпущен 27 октября 2003 года на лейбле Polydor Records.


    Sophie Ellis-Bextor - I Won't Change You



    Скрытый текст (вы должны войти под своим логином или зарегистрироваться и иметь 5 сообщение(ий)):
    У вас нет прав чтобы видеть скрытый текст, содержащийся здесь.

  6. 3 пользователя(ей) сказали cпасибо:

    Coroed (09.01.2020), Puharik (09.01.2020), Старец (11.01.2020)

  7. #4
    Супер модератор Array Аватар для aheron
    Регистрация
    11.06.2018
    Сообщений
    610
    Сказал(а) спасибо
    4,478
    Поблагодарили 3,441 раз(а)
    в 567 сообщениях
    Онлайн
    1 Нед 4 Дней 22 ч 18 мин 27 сек
    В среднем
    4 мин 59 сек
    Sophie Ellis-Bextor - Trip The Light Fantastic (2007)





    Performer: Sophie Ellis-Bextor
    Album: Trip The Light Fantastic
    Label: Polydor. Made in the EU.
    Catalog #: 1731541
    Style: House, Europop, Synth-pop
    Year: 2007
    Format: FLAC (image + .cue)
    Bitrate: lossless
    Covers: in archive
    Amount of tracks: 12
    Size ZIP: ~ 479 mb

    ••• Tracklist •••

    01. Sophie Ellis-Bextor - Catch You [3:19]
    02. Sophie Ellis-Bextor - Me And My Imagination [3:27]
    03. Sophie Ellis-Bextor - Today The Sun's On Us [4:18]
    04. Sophie Ellis-Bextor - New York City Lights [3:53]
    05. Sophie Ellis-Bextor - If I Can't Dance [3:27]
    06. Sophie Ellis-Bextor - The Distance Between Us [4:26]
    07. Sophie Ellis-Bextor - If You Go [3:27]
    08. Sophie Ellis-Bextor - Only One [3:46]
    09. Sophie Ellis-Bextor - Love Is Here [4:35]
    10. Sophie Ellis-Bextor - New Flame [2:52]
    11. Sophie Ellis-Bextor - China Heart [3:44]
    12. Sophie Ellis-Bextor - What Have We Started [4:06]
    ------------------------------
    Total time: [45:20]

    Notes:
    =======================
    ℗ & © 2007 Polydor Ltd. (UK). The copyright in this sound recording is owned by Polydor Ltd. (UK), a Universal Music company.
    Made In The EU. - "Not For Sale In The European Economic Area Or Switzerland"

    Housed in a Super Jewel Box, with a 12-page booklet containing images , lyrics and liner notes.
    [свернуть]

    ••• Log EAC + Log auCDtect + Dynamic Range Meter + Spectrum •••

    Exact Audio Copy V0.99 prebeta 5 from 4. May 2009

    EAC extraction logfile from 20. August 2011, 1:26

    Sophie Ellis-Bextor / Trip The Light Fantastic

    Used drive : PIONEER DVD-RW DVR-112D Adapter: 2 ID: 0

    Read mode : Secure
    Utilize accurate stream : Yes
    Defeat audio cache : Yes
    Make use of C2 pointers : No

    Read offset correction : 48
    Overread into Lead-In and Lead-Out : No
    Fill up missing offset samples with silence : Yes
    Delete leading and trailing silent blocks : No
    Null samples used in CRC calculations : Yes
    Used interface : Installed external ASPI interface

    Used output format : User Defined Encoder
    Selected bitrate : 1024 kBit/s
    Quality : High
    Add ID3 tag : No
    Command line compressor : C:\Program Files (x86)\Exact Audio Copy\Flac\flac.exe
    Additional command line options : -5 -V -T "ARTIST=%a" -T "TITLE=%t" -T "ALBUM=%g" -T "DATE=%y" -T "TRACKNUMBER=%n" -T "GENRE=%m" -T "COMMENT=EAC FLAC -5" %s


    TOC of the extracted CD

    Track | Start | Length | Start sector | End sector
    ---------------------------------------------------------
    1 | 0:00.00 | 3:19.12 | 0 | 14936
    2 | 3:19.12 | 3:27.03 | 14937 | 30464
    3 | 6:46.15 | 4:18.32 | 30465 | 49846
    4 | 11:04.47 | 3:53.33 | 49847 | 67354
    5 | 14:58.05 | 3:26.45 | 67355 | 82849
    6 | 18:24.50 | 4:26.30 | 82850 | 102829
    7 | 22:51.05 | 3:27.35 | 102830 | 118389
    8 | 26:18.40 | 3:45.47 | 118390 | 135311
    9 | 30:04.12 | 4:34.60 | 135312 | 155921
    10 | 34:38.72 | 2:51.38 | 155922 | 168784
    11 | 37:30.35 | 3:44.05 | 168785 | 185589
    12 | 41:14.40 | 4:06.32 | 185590 | 204071


    Range status and errors

    Selected range

    Filename F:\Sophie Ellis-Bextor\2007 - Trip The Light Fantastic\Sophie Ellis-Bextor - Trip The Light Fantastic.wav

    Peak level 98.8 %
    Range quality 100.0 %
    Test CRC EE1723DF
    Copy CRC EE1723DF
    Copy OK

    No errors occurred


    AccurateRip summary

    Track 1 accurately ripped (confidence 38) [52688127]
    Track 2 accurately ripped (confidence 39) [AEB65F69]
    Track 3 accurately ripped (confidence 38) [24FEB467]
    Track 4 accurately ripped (confidence 37) [ED737052]
    Track 5 accurately ripped (confidence 36) [C1BB50AE]
    Track 6 accurately ripped (confidence 36) [1234EFC1]
    Track 7 accurately ripped (confidence 36) [208FF69E]
    Track 8 accurately ripped (confidence 35) [E6662C42]
    Track 9 accurately ripped (confidence 36) [52F65B65]
    Track 10 accurately ripped (confidence 37) [E7283D92]
    Track 11 accurately ripped (confidence 37) [76A941BF]
    Track 12 accurately ripped (confidence 36) [5937DCE5]

    All tracks accurately ripped

    End of status report

    /////////////////////////////////////////////////////////////////////////////

    -----------------------

    DON'T MODIFY THIS FILE

    -----------------------

    PERFORMER: auCDtect Task Manager, ver. 1.6.0 RC1 build 1.6.0.1
    Copyright (c) 2008-2010 y-soft. All rights reserved
    http://y-soft.org

    ANALYZER: auCDtect: CD records authenticity detector, version 0.8.2
    Copyright (c) 2004 Oleg Berngardt. All rights reserved.
    Copyright (c) 2004 Alexander Djourik. All rights reserved.


    FILE: Sophie Ellis-Bextor - Trip The Light Fantastic.flac
    Size: 345551111 Hash: EB52D2B1860309C9AAF67F1BB906E2FD Accuracy: -m0
    Conclusion: CDDA 100%
    Signature: A66411098FC3A47BD6AA925B2160175ADE597837

    /////////////////////////////////////////////////////////////////////////////////////

    foobar2000 1.2.8 / Dynamic Range Meter 1.1.1
    log date: 2013-11-10 18:52:23

    --------------------------------------------------------------------------------
    Analyzed: Sophie Ellis-Bextor / Trip The Light Fantastic
    --------------------------------------------------------------------------------

    DR Peak RMS Duration Track
    --------------------------------------------------------------------------------
    DR6 -0.29 dB -7.16 dB 3:19 01-Catch You
    DR6 -0.25 dB -7.62 dB 3:27 02-Me And My Imagination
    DR5 -0.10 dB -6.99 dB 4:18 03-Today The Sun's On Us
    DR6 -0.24 dB -7.66 dB 3:53 04-New York City Lights
    DR6 -0.22 dB -7.83 dB 3:27 05-If I Can't Dance
    DR6 -0.23 dB -7.62 dB 4:26 06-The Distance Between Us
    DR6 -0.69 dB -7.63 dB 3:27 07-If You Go
    DR6 -0.74 dB -8.01 dB 3:46 08-Only One
    DR6 -0.10 dB -7.94 dB 4:35 09-Love Is Here
    DR6 -0.26 dB -7.33 dB 2:52 10-New Flame
    DR6 -0.10 dB -7.66 dB 3:44 11-China Heart
    DR6 -0.24 dB -8.87 dB 4:06 12-What Have We Started
    --------------------------------------------------------------------------------

    Number of tracks: 12
    Official DR value: DR6

    Samplerate: 44100 Hz
    Channels: 2
    Bits per sample: 16
    Bitrate: 1016 kbps
    Codec: FLAC
    ================================================== ==============================

    ///////////////////////////////////////////////////////////////////////////////////

    [свернуть]

    Trip the Light Fantastic — третий альбом английской певицы Софи Эллис-Бекстор, выпущен 21 мая 2007 года сразу после релиза двух синглов: «Catch You» и «Me and My Imagination». Альбом был доступен для скачивания в интернете за три дня до релиза в Великобритании.


    Sophie Ellis-Bextor - Me And My Imagination



    Скрытый текст (вы должны войти под своим логином или зарегистрироваться и иметь 5 сообщение(ий)):
    У вас нет прав чтобы видеть скрытый текст, содержащийся здесь.

  8. 3 пользователя(ей) сказали cпасибо:

    Coroed (10.01.2020), Puharik (10.01.2020), Старец (11.01.2020)

  9. #5
    Супер модератор Array Аватар для aheron
    Регистрация
    11.06.2018
    Сообщений
    610
    Сказал(а) спасибо
    4,478
    Поблагодарили 3,441 раз(а)
    в 567 сообщениях
    Онлайн
    1 Нед 4 Дней 22 ч 18 мин 27 сек
    В среднем
    4 мин 59 сек
    Sophie Ellis-Bextor - Make A Scene (2011)





    Performer: Sophie Ellis-Bextor
    Album: Make A Scene
    Label: Douglas Valentine Limited. Made in the EU.
    Catalog #: EBGBCD001
    Style: Electro, Synth-pop, Disco
    Year: 2011
    Format: FLAC (image + .cue)
    Bitrate: lossless
    Covers: in archive
    Amount of tracks: 14
    Size ZIP: ~ 713 mb

    ••• Tracklist •••

    01. Sophie Ellis-Bextor - Revolution [2:45]
    02. Sophie Ellis-Bextor - Bittersweet [3:29]
    03. Sophie Ellis-Bextor - Off & On [3:33]
    04. Sophie Ellis-Bextor - Heartbreak (Make Me A Dancer) (Freemasons feat. Sophie Ellis-Bextor) [3:26]
    05. Sophie Ellis-Bextor - Not Giving Up On Love (Armin Van Buuren vs. Sophie Ellis-Bextor) [2:56]
    06. Sophie Ellis-Bextor - Can't Fight This Feeling (Junior Caldera feat. Sophie Ellis-Bextor) [3:40]
    07. Sophie Ellis-Bextor - Starlight [4:22]
    08. Sophie Ellis-Bextor - Under Your Touch [3:55]
    09. Sophie Ellis-Bextor - Make A Scene [3:51]
    10. Sophie Ellis-Bextor - Magic [4:35]
    11. Sophie Ellis-Bextor - Dial My Number [3:40]
    12. Sophie Ellis-Bextor - Homewrecker [3:27]
    13. Sophie Ellis-Bextor - Synchronised [3:15]
    14. Sophie Ellis-Bextor - Cut Straight To The Heart [3:38]
    ------------------------------
    Total time: [50:32]

    Notes:
    ===================
    All tracks © Douglas Valentine Limited ℗ 2011 Except for Heartbreak © Loaded Records Limited ℗ 2010 under exclusive license to Douglas Valentine Limited Can't Fight This Feeling © Colorz Records ℗ 2008 Not Giving Up © Armada Music BV and Douglas Valentine Limited ℗ 2010.
    [свернуть]

    ••• Log EAC + Log auCDtect + Dynamic Range Meter + Spectrum •••

    Exact Audio Copy V0.99 prebeta 5 from 4. May 2009

    EAC extraction logfile from 19. August 2011, 23:58

    Sophie Ellis-Bextor / Make A Scene

    Used drive : PIONEER DVD-RW DVR-112D Adapter: 2 ID: 0

    Read mode : Secure
    Utilize accurate stream : Yes
    Defeat audio cache : Yes
    Make use of C2 pointers : No

    Read offset correction : 48
    Overread into Lead-In and Lead-Out : No
    Fill up missing offset samples with silence : Yes
    Delete leading and trailing silent blocks : No
    Null samples used in CRC calculations : Yes
    Used interface : Installed external ASPI interface

    Used output format : User Defined Encoder
    Selected bitrate : 1024 kBit/s
    Quality : High
    Add ID3 tag : No
    Command line compressor : C:\Program Files (x86)\Exact Audio Copy\Flac\flac.exe
    Additional command line options : -5 -V -T "ARTIST=%a" -T "TITLE=%t" -T "ALBUM=%g" -T "DATE=%y" -T "TRACKNUMBER=%n" -T "GENRE=%m" -T "COMMENT=EAC FLAC -5" %s


    TOC of the extracted CD

    Track | Start | Length | Start sector | End sector
    ---------------------------------------------------------
    1 | 0:00.00 | 2:44.60 | 0 | 12359
    2 | 2:44.60 | 3:28.72 | 12360 | 28031
    3 | 6:13.57 | 3:33.27 | 28032 | 44033
    4 | 9:47.09 | 3:26.23 | 44034 | 59506
    5 | 13:13.32 | 2:56.08 | 59507 | 72714
    6 | 16:09.40 | 3:40.11 | 72715 | 89225
    7 | 19:49.51 | 4:22.17 | 89226 | 108892
    8 | 24:11.68 | 3:54.67 | 108893 | 126509
    9 | 28:06.60 | 3:50.73 | 126510 | 143832
    10 | 31:57.58 | 4:34.70 | 143833 | 164452
    11 | 36:32.53 | 3:40.34 | 164453 | 180986
    12 | 40:13.12 | 3:26.69 | 180987 | 196505
    13 | 43:40.06 | 3:14.68 | 196506 | 211123
    14 | 46:54.74 | 3:37.59 | 211124 | 227457


    Range status and errors

    Selected range

    Filename F:\Sophie Ellis-Bextor - Make A Scene - 2011\Sophie Ellis-Bextor - Make A Scene.wav

    Peak level 100.0 %
    Range quality 100.0 %
    Test CRC FB8C2F77
    Copy CRC FB8C2F77
    Copy OK

    No errors occurred


    AccurateRip summary

    Track 1 cannot be verified as accurate (confidence 6) [76DED328], AccurateRip returned [50A12363]
    Track 2 cannot be verified as accurate (confidence 6) [30AD7442], AccurateRip returned [A1924A21]
    Track 3 cannot be verified as accurate (confidence 6) [60082B66], AccurateRip returned [A877E436]
    Track 4 cannot be verified as accurate (confidence 6) [5C936F65], AccurateRip returned [6C70BF63]
    Track 5 cannot be verified as accurate (confidence 6) [44856CB0], AccurateRip returned [FA5EB82B]
    Track 6 cannot be verified as accurate (confidence 6) [8CD0E518], AccurateRip returned [7C1E1A37]
    Track 7 cannot be verified as accurate (confidence 6) [FA9326DD], AccurateRip returned [2726DC64]
    Track 8 cannot be verified as accurate (confidence 6) [B7280B97], AccurateRip returned [48F55F87]
    Track 9 cannot be verified as accurate (confidence 6) [B86FEE67], AccurateRip returned [17995697]
    Track 10 cannot be verified as accurate (confidence 6) [6A99AD98], AccurateRip returned [7E21E1D9]
    Track 11 cannot be verified as accurate (confidence 6) [46C050BD], AccurateRip returned [B9FF29F2]
    Track 12 cannot be verified as accurate (confidence 6) [87909E27], AccurateRip returned [AAA73FE5]
    Track 13 cannot be verified as accurate (confidence 6) [B1CFAEE3], AccurateRip returned [6A43E54F]
    Track 14 cannot be verified as accurate (confidence 6) [4EBCBEEC], AccurateRip returned [9ED1FFDE]

    No tracks could be verified as accurate
    You may have a different pressing from the one(s) in the database

    End of status report

    ////////////////////////////////////////////////////////////////////////////////

    -----------------------

    DON'T MODIFY THIS FILE

    -----------------------

    PERFORMER: auCDtect Task Manager, ver. 1.6.0 RC1 build 1.6.0.1
    Copyright (c) 2008-2010 y-soft. All rights reserved
    http://y-soft.org

    ANALYZER: auCDtect: CD records authenticity detector, version 0.8.2
    Copyright (c) 2004 Oleg Berngardt. All rights reserved.
    Copyright (c) 2004 Alexander Djourik. All rights reserved.


    FILE: Sophie Ellis-Bextor - Make A Scene.flac
    Size: 416304859 Hash: 6DD708DF383D5A94E31F9CD490D90C2C Accuracy: -m0
    Conclusion: CDDA 99%
    Signature: AAAA18DAA184C44E825FF09C9C7AC62FC5CE888F

    //////////////////////////////////////////////////////////////////////////////////

    foobar2000 1.2.8 / Dynamic Range Meter 1.1.1
    log date: 2013-11-10 20:09:23

    --------------------------------------------------------------------------------
    Analyzed: Sophie Ellis-Bextor / Make A Scene
    --------------------------------------------------------------------------------

    DR Peak RMS Duration Track
    --------------------------------------------------------------------------------
    DR4 0.00 dB -5.65 dB 2:45 01-Revolution
    DR4 0.00 dB -4.83 dB 3:29 02-Bittersweet
    DR5 0.00 dB -6.36 dB 3:33 03-Off & On
    DR4 0.00 dB -5.48 dB 3:26 04-Heartbreak (Make Me A Dancer) (Freemasons feat. Sophie Ellis-Bextor)
    DR4 0.00 dB -6.38 dB 2:56 05-Not Giving Up On Love (Armin Van Buuren vs. Sophie Ellis-Bextor)
    DR4 0.00 dB -5.79 dB 3:40 06-Can't Fight This Feeling (Junior Caldera feat. Sophie Ellis-Bextor)
    DR5 0.00 dB -6.32 dB 4:22 07-Starlight
    DR4 0.00 dB -5.44 dB 3:55 08-Under Your Touch
    DR4 0.00 dB -5.78 dB 3:51 09-Make A Scene
    DR4 0.00 dB -5.16 dB 4:35 10-Magic
    DR5 0.00 dB -5.87 dB 3:40 11-Dial My Number
    DR5 0.00 dB -6.09 dB 3:27 12-Homewrecker
    DR4 0.00 dB -5.65 dB 3:15 13-Synchronised
    DR5 0.00 dB -6.07 dB 3:38 14-Cut Straight To The Heart
    --------------------------------------------------------------------------------

    Number of tracks: 14
    Official DR value: DR4

    Samplerate: 44100 Hz
    Channels: 2
    Bits per sample: 16
    Bitrate: 1098 kbps
    Codec: FLAC
    ================================================== ==============================

    /////////////////////////////////////////////////////////////////////////////////////

    [свернуть]

    Make a Scene — четвёртый студийный альбом английской певицы Софи Эллис-Бекстор. Релиз альбома состоялся 18 апреля 2011 года в России, и только 6 июня на родине певицы в Великобритании.
    Sophie Ellis-Bextor - Can't Fight This Feeling (Junior Caldera feat. Sophie Ellis-Bextor)



    Скрытый текст (вы должны войти под своим логином или зарегистрироваться и иметь 5 сообщение(ий)):
    У вас нет прав чтобы видеть скрытый текст, содержащийся здесь.

  10. 3 пользователя(ей) сказали cпасибо:

    Coroed (12.01.2020), Puharik (12.01.2020), Старец (13.01.2020)

  11. #6
    Супер модератор Array Аватар для aheron
    Регистрация
    11.06.2018
    Сообщений
    610
    Сказал(а) спасибо
    4,478
    Поблагодарили 3,441 раз(а)
    в 567 сообщениях
    Онлайн
    1 Нед 4 Дней 22 ч 18 мин 27 сек
    В среднем
    4 мин 59 сек
    Sophie Ellis-Bextor - Wanderlust (2014)





    Performer: Sophie Ellis-Bextor
    Album: Wanderlust
    Label: EBGB's/Douglas Valentine Limited. Made in UK.
    Catalog #: EBGBCD002S
    Style: Pop, Rock, Dance, Electronic
    Year: 2014 (Limited Edition, Deluxe Bookbound)
    Format: FLAC (image + .cue)
    Bitrate: lossless
    Covers: in archive
    Amount of tracks: 11
    Size ZIP: ~ 817 mb

    ••• Tracklist •••

    01. Sophie Ellis-Bextor - Birth Of An Empire [3:50]
    02. Sophie Ellis-Bextor - Until The Stars Collide [3:40]
    03. Sophie Ellis-Bextor - Runaway Daydreamer [4:00]
    04. Sophie Ellis-Bextor - The Deer & The Wolf [3:54]
    05. Sophie Ellis-Bextor - Young Blood [4:28]
    06. Sophie Ellis-Bextor - Interlude [2:23]
    07. Sophie Ellis-Bextor - 13 Little Dolls [3:33]
    08. Sophie Ellis-Bextor - Wrong Side Of The Sun [3:51]
    09. Sophie Ellis-Bextor - Love Is A Camera [4:13]
    10. Sophie Ellis-Bextor - Cry To The Beat Of The Band [3:39]
    11. Sophie Ellis-Bextor - When The Storm Has Blown Over [3:32]
    --------------------------
    Total time: [41:02]


    Notes:
    =====================
    ℗&© 2014 Douglas Valentine Limited.

    Deluxe bookbound edition with 20-page booklet featuring lyrics and photos.
    Initial copies ordered from Sophie's official store came accompanied with a signed glossy photo print
    [свернуть]

    ••• Log EAC + Log auCDtect + Dynamic Range Meter + Spectrum •••

    Exact Audio Copy V1.1 from 23. June 2015

    EAC extraction logfile from 24. December 2015, 2:28

    Sophie Ellis-Bextor / Wanderlust

    Used drive : PLEXTOR DVDR PX-810SA Adapter: 2 ID: 0

    Read mode : Secure
    Utilize accurate stream : Yes
    Defeat audio cache : Yes
    Make use of C2 pointers : No

    Read offset correction : 48
    Overread into Lead-In and Lead-Out : No
    Fill up missing offset samples with silence : Yes
    Delete leading and trailing silent blocks : No
    Null samples used in CRC calculations : Yes
    Used interface : Installed external ASPI interface

    Used output format : User Defined Encoder
    Selected bitrate : 1024 kBit/s
    Quality : High
    Add ID3 tag : No
    Command line compressor : C:\Program Files (x86)\Exact Audio Copy\Flac\flac.exe
    Additional command line options : -8 -V -T "Date=%year%" -T "Genre=%genre%" -T "COMMENT=ripped by bvstudio®" %source%


    TOC of the extracted CD

    Track | Start | Length | Start sector | End sector
    ---------------------------------------------------------
    1 | 0:00.00 | 3:49.42 | 0 | 17216
    2 | 3:49.42 | 3:39.57 | 17217 | 33698
    3 | 7:29.24 | 4:00.03 | 33699 | 51701
    4 | 11:29.27 | 3:54.12 | 51702 | 69263
    5 | 15:23.39 | 4:28.16 | 69264 | 89379
    6 | 19:51.55 | 2:23.11 | 89380 | 100115
    7 | 22:14.66 | 3:32.54 | 100116 | 116069
    8 | 25:47.45 | 3:50.68 | 116070 | 133387
    9 | 29:38.38 | 4:13.17 | 133388 | 152379
    10 | 33:51.55 | 3:38.73 | 152380 | 168802
    11 | 37:30.53 | 3:32.03 | 168803 | 184705


    Range status and errors

    Selected range

    Filename F:\Sophie Ellis-Bextor\2014 - Wanderlust (Deluxe Bookbound with Signed photo print) (2014 - Douglas Valentine Limited. United Kingdom - EBGBCD002S)\Sophie Ellis-Bextor - Wanderlust.wav

    Peak level 99.0 %
    Extraction speed 6.7 X
    Range quality 100.0 %
    Test CRC 60458DBE
    Copy CRC 60458DBE
    Copy OK

    No errors occurred


    AccurateRip summary

    Track 1 accurately ripped (confidence 61) [9178EBA0] (AR v2)
    Track 2 accurately ripped (confidence 61) [D62C6E4B] (AR v2)
    Track 3 accurately ripped (confidence 61) [B38D609E] (AR v2)
    Track 4 accurately ripped (confidence 61) [55BE2AA5] (AR v2)
    Track 5 accurately ripped (confidence 61) [E883AD1E] (AR v2)
    Track 6 accurately ripped (confidence 61) [9C01272C] (AR v2)
    Track 7 accurately ripped (confidence 61) [526B7146] (AR v2)
    Track 8 accurately ripped (confidence 61) [B527CD29] (AR v2)
    Track 9 accurately ripped (confidence 60) [20B5A187] (AR v2)
    Track 10 accurately ripped (confidence 60) [B3716628] (AR v2)
    Track 11 accurately ripped (confidence 60) [0C0AE2CD] (AR v2)

    All tracks accurately ripped

    End of status report

    ---- CUETools DB Plugin V2.1.6

    [CTDB TOCID: NeGu1jtOXC0871yUQeJVKMLOKac-] found
    Submit result: already submitted
    Track | CTDB Status
    1 | (60/60) Accurately ripped
    2 | (60/60) Accurately ripped
    3 | (60/60) Accurately ripped
    4 | (60/60) Accurately ripped
    5 | (60/60) Accurately ripped
    6 | (60/60) Accurately ripped
    7 | (60/60) Accurately ripped
    8 | (60/60) Accurately ripped
    9 | (60/60) Accurately ripped
    10 | (60/60) Accurately ripped
    11 | (60/60) Accurately ripped


    ==== Log checksum 0177350DF0ED81CE86E934AF218D97C423B875C00A6DBD982F 1351B923258142 ====

    ////////////////////////////////////////////////////////////////////////////

    -----------------------

    DON'T MODIFY THIS FILE

    -----------------------

    PERFORMER: auCDtect Task Manager, ver. 1.6.0 RC1 build 1.6.0.1
    Copyright (c) 2008-2010 y-soft. All rights reserved
    http://y-soft.org

    ANALYZER: auCDtect: CD records authenticity detector, version 0.8.2
    Copyright (c) 2004 Oleg Berngardt. All rights reserved.
    Copyright (c) 2004 Alexander Djourik. All rights reserved.


    FILE: Sophie Ellis-Bextor - Wanderlust.flac
    Size: 277833032 Hash: E8F2CFBB1F645D0F7AE19262F9597FF5 Accuracy: -m0
    Conclusion: CDDA 100%
    Signature: 87798F32E20342E878D5084E5143D78EFE01C2D5

    /////////////////////////////////////////////////////////////////////////////////

    foobar2000 1.3.9 / Dynamic Range Meter 1.1.1
    log date: 2016-02-03 20:03:09

    --------------------------------------------------------------------------------
    Analyzed: Sophie Ellis-Bextor / Wanderlust
    --------------------------------------------------------------------------------

    DR Peak RMS Duration Track
    --------------------------------------------------------------------------------
    DR7 -0.08 dB -9.72 dB 3:50 01-Birth Of An Empire
    DR8 -0.09 dB -9.86 dB 3:40 02-Until The Stars Collide
    DR9 -0.10 dB -10.88 dB 4:00 03-Runaway Daydreamer
    DR7 -0.08 dB -8.84 dB 3:54 04-The Deer & The Wolf
    DR9 -0.08 dB -11.58 dB 4:28 05-Young Blood
    DR12 -1.56 dB -16.53 dB 2:23 06-Interlude
    DR7 -0.08 dB -8.15 dB 3:33 07-13 Little Dolls
    DR8 -0.08 dB -10.00 dB 3:51 08-Wrong Side Of The Sun
    DR9 -0.08 dB -10.45 dB 4:13 09-Love Is A Camera
    DR8 -0.09 dB -10.69 dB 3:39 10-Cry To The Beat Of The Band
    DR10 -1.29 dB -15.30 dB 3:32 11-When The Storm Has Blown Over
    --------------------------------------------------------------------------------

    Number of tracks: 11
    Official DR value: DR8

    Samplerate: 44100 Hz
    Channels: 2
    Bits per sample: 16
    Bitrate: 902 kbps
    Codec: FLAC
    ================================================== ==============================

    //////////////////////////////////////////////////////////////////////////////////

    [свернуть]


    Wanderlust — пятый студийный альбом английской певицы Софи Эллис-Бекстор, вышедший 20 января 2014 года. Софи Эллис-Бекстор летом 2013 года подтвердила, что готов трек-лист к следующему альбому и диск должен выйти осенью 2013 года, но позже сообщила, что дата выхода перенесена на январь 2014 года. 20 ноября 2013 года певица выпустила первый сингл - "Young Blood", демоверсию которого она представила ранее. Клип певицы на этот лид-сингл вышел 25 ноября. По словам певицы, альбом пропитан любовью к России. На обложке альбома заметно влияние кириллицы.


    Sophie Ellis-Bextor - Runaway Daydreamer



    Скрытый текст (вы должны войти под своим логином или зарегистрироваться и иметь 5 сообщение(ий)):
    У вас нет прав чтобы видеть скрытый текст, содержащийся здесь.

  12. 3 пользователя(ей) сказали cпасибо:

    Coroed (14.01.2020), Puharik (14.01.2020), Старец (14.01.2020)

  13. #7
    Супер модератор Array Аватар для aheron
    Регистрация
    11.06.2018
    Сообщений
    610
    Сказал(а) спасибо
    4,478
    Поблагодарили 3,441 раз(а)
    в 567 сообщениях
    Онлайн
    1 Нед 4 Дней 22 ч 18 мин 27 сек
    В среднем
    4 мин 59 сек
    Sophie Ellis-Bextor - Familia (2016) [Deluxe Edition]





    Performer: Sophie Ellis-Bextor
    Album: Familia
    Label: Red Essential/EBGB'S. Made in UK.
    Catalog #: EBGBCD004S, EBGBLP004
    Style: Pop, Rock, Dance, Electronic
    Year: 2016 (Deluxe Bookbound Signed CD)
    Format: FLAC (image + .cue)
    Bitrate: lossless
    Covers: in archive
    Amount of tracks: 11
    Size ZIP: ~ 913 mb

    ••• Tracklist •••

    01. Sophie Ellis-Bextor - Wild Forever [4:22]
    02. Sophie Ellis-Bextor - Death Of Love [4:20]
    03. Sophie Ellis-Bextor - Crystallise [3:32]
    04. Sophie Ellis-Bextor - Hush Little Voices [4:14]
    05. Sophie Ellis-Bextor - Here Comes The Rapture [4:06]
    06. Sophie Ellis-Bextor - Come With Us [3:55]
    07. Sophie Ellis-Bextor - Cassandra [3:39]
    08. Sophie Ellis-Bextor - My Puppet Heart [4:05]
    09. Sophie Ellis-Bextor - Unrequited [4:32]
    10. Sophie Ellis-Bextor - The Saddest Happiness [4:15]
    11. Sophie Ellis-Bextor - Don't Shy Away [4:33]
    --------------------------
    Total time: [45:32]


    Credits:
    ======================
    Arranged By [All Strings Arranged And Composed By] – Amy Langley
    Art Direction – Michael Nash Associates
    Bass – Richard Jones
    Drums, Percussion – Phil Wilkinson
    Guitar – Seton Daunt
    Instruments [All Other] – Ed Harcourt
    Management – Wallace Productions
    Mixed By – Cenzo Townshend
    Mixed By [Assistant] – Joe McCann
    Photography By – Sophie Muller
    Piano, Synthesizer, Sampler [Samples], Keyboards – Ed Harcourt
    Producer – Ed Harcourt
    Recorded By [Assistant], Engineer [Assistant] – Martin Hannah
    Recorded By, Engineer – Richard Woodcraft
    Strings – Dirty Pretty Strings (tracks: 5, 6, 8, 9, 10)
    Vocals – Sophie Ellis-Bextor
    Written-By – Ed Harcourt, Sophie Ellis-Bextor

    Notes:
    =====================
    Ⓟ & Ⓒ 2016 EBGB'S LLP 2016.

    Deluxe 28 page hardback book edition.
    Copies signed by Sophie Ellis-Bextor were available to purchase from Sophie´s webstore.

    Released - 2 September 2016
    Recorded - State of the Ark (Richmond, London)
    Producer - Ed Harcourt
    [свернуть]

    ••• Log EAC + Log auCDtect + Dynamic Range Meter + Spectrum •••

    Exact Audio Copy V1.3 from 2. September 2016

    EAC extraction logfile from 22. September 2016, 1:11

    Sophie Ellis-Bextor / Familia

    Used drive : PLEXTOR DVDR PX-810SA Adapter: 2 ID: 0

    Read mode : Secure
    Utilize accurate stream : Yes
    Defeat audio cache : Yes
    Make use of C2 pointers : No

    Read offset correction : 48
    Overread into Lead-In and Lead-Out : No
    Fill up missing offset samples with silence : Yes
    Delete leading and trailing silent blocks : No
    Null samples used in CRC calculations : Yes
    Used interface : Installed external ASPI interface

    Used output format : User Defined Encoder
    Selected bitrate : 1024 kBit/s
    Quality : High
    Add ID3 tag : No
    Command line compressor : C:\Program Files (x86)\Exact Audio Copy\Flac\flac.exe
    Additional command line options : -8 -V -T "Date=%year%" -T "Genre=%genre%" -T "COMMENT=ripped by bvstudio®" %source%


    TOC of the extracted CD

    Track | Start | Length | Start sector | End sector
    ---------------------------------------------------------
    1 | 0:00.00 | 4:21.70 | 0 | 19644
    2 | 4:21.70 | 4:20.05 | 19645 | 39149
    3 | 8:42.00 | 3:31.55 | 39150 | 55029
    4 | 12:13.55 | 4:14.25 | 55030 | 74104
    5 | 16:28.05 | 4:06.28 | 74105 | 92582
    6 | 20:34.33 | 3:54.46 | 92583 | 110178
    7 | 24:29.04 | 3:38.51 | 110179 | 126579
    8 | 28:07.55 | 4:05.09 | 126580 | 144963
    9 | 32:12.64 | 4:32.06 | 144964 | 165369
    10 | 36:44.70 | 4:14.63 | 165370 | 184482
    11 | 40:59.58 | 4:33.02 | 184483 | 204959


    Range status and errors

    Selected range

    Filename F:\2016 - Familia (Deluxe Bookbound Signed CD) (2016 - Red Essential. EBGB'S. United Kingdom - EBGBDC004S)\Sophie Ellis-Bextor - Familia.wav

    Peak level 98.9 %
    Extraction speed 6.9 X
    Range quality 100.0 %
    Test CRC EDC1B39D
    Copy CRC EDC1B39D
    Copy OK

    No errors occurred


    AccurateRip summary

    Track 1 not present in database
    Track 2 not present in database
    Track 3 not present in database
    Track 4 not present in database
    Track 5 not present in database
    Track 6 not present in database
    Track 7 not present in database
    Track 8 not present in database
    Track 9 not present in database
    Track 10 not present in database
    Track 11 not present in database

    None of the tracks are present in the AccurateRip database

    End of status report

    ---- CUETools DB Plugin V2.1.6

    [CTDB TOCID: BEXPCrOliNrcS0u361R2_Hy3kC4-] found
    Submit result: BEXPCrOliNrcS0u361R2_Hy3kC4- has been confirmed
    Track | CTDB Status
    1 | (12/13) Accurately ripped
    2 | (12/13) Accurately ripped
    3 | (12/13) Accurately ripped
    4 | (12/13) Accurately ripped
    5 | (12/13) Accurately ripped
    6 | (12/13) Accurately ripped
    7 | (12/13) Accurately ripped
    8 | (12/13) Accurately ripped
    9 | (12/13) Accurately ripped
    10 | (12/13) Accurately ripped
    11 | (12/13) Accurately ripped


    ==== Log checksum 97BA9CD594AA93F5F6BA89586CACDB05A154BF36EDCD9ACAA8 93EE8F0D51B6FE ====

    //////////////////////////////////////////////////////////////////////////////

    -----------------------

    DON'T MODIFY THIS FILE

    -----------------------

    PERFORMER: auCDtect Task Manager, ver. 1.6.0 RC1 build 1.6.0.1
    Copyright (c) 2008-2010 y-soft. All rights reserved
    http://y-soft.org

    ANALYZER: auCDtect: CD records authenticity detector, version 0.8.2
    Copyright (c) 2004 Oleg Berngardt. All rights reserved.
    Copyright (c) 2004 Alexander Djourik. All rights reserved.


    FILE: Sophie Ellis-Bextor - Familia.flac
    Size: 316023990 Hash: 8BEFB867D3BE22E9E651F14C6D955C32 Accuracy: -m0
    Conclusion: CDDA 100%
    Signature: BE0590E033B6EC9E794A2D59F102F4919F13ED10

    //////////////////////////////////////////////////////////////////////////////////

    foobar2000 1.3.13 / Dynamic Range Meter 1.1.1
    log date: 2016-11-19 08:40:11

    --------------------------------------------------------------------------------
    Analyzed: Sophie Ellis-Bextor / Familia
    --------------------------------------------------------------------------------

    DR Peak RMS Duration Track
    --------------------------------------------------------------------------------
    DR6 -0.20 dB -7.88 dB 4:22 01-Wild Forever
    DR5 -1.46 dB -8.24 dB 4:20 02-Death Of Love
    DR7 -0.27 dB -9.42 dB 3:32 03-Crystallise
    DR6 -0.24 dB -7.87 dB 4:14 04-Hush Little Voices
    DR6 -0.31 dB -9.18 dB 4:06 05-Here Comes The Rapture
    DR6 -0.09 dB -7.61 dB 3:55 06-Come With Us
    DR6 -0.23 dB -7.64 dB 3:39 07-Cassandra
    DR6 -0.20 dB -8.31 dB 4:05 08-My Puppet Heart
    DR7 -0.32 dB -8.60 dB 4:32 09-Unrequited
    DR6 -0.15 dB -7.57 dB 4:15 10-The Saddest Happiness
    DR6 -0.23 dB -9.37 dB 4:33 11-Don't Shy Away
    --------------------------------------------------------------------------------

    Number of tracks: 11
    Official DR value: DR6

    Samplerate: 44100 Hz
    Channels: 2
    Bits per sample: 16
    Bitrate: 925 kbps
    Codec: FLAC
    ================================================== ==============================

    ////////////////////////////////////////////////////////////////////////////////////

    [свернуть]

    Familia — шестой студийный альбом британской певицы и автора-исполнителя Софи Эллис Бекстор, выпущенный 2 сентября 2016 года на EBGB LLP. Первый сингл из этого альбома «Come with Us» был выпущен 19 июля и прозвучал на таких радоистанциях как, West Hull FMruen 1 августа и на BBC Radio 2 2 августа. Продюсером альбома, как и на предыдущем релизе певицы — Wanderlust выступил Эд Харкорт.
    Sophie Ellis-Bextor - Come With Us



    Скрытый текст (вы должны войти под своим логином или зарегистрироваться и иметь 5 сообщение(ий)):
    У вас нет прав чтобы видеть скрытый текст, содержащийся здесь.

  14. 3 пользователя(ей) сказали cпасибо:

    Coroed (16.01.2020), Puharik (17.01.2020), Старец (17.01.2020)

Информация о теме

Пользователи, просматривающие эту тему

Эту тему просматривают: 1 (пользователей: 0 , гостей: 1)

Социальные закладки

Социальные закладки

Ваши права

  • Вы не можете создавать новые темы
  • Вы не можете отвечать в темах
  • Вы не можете прикреплять вложения
  • Вы не можете редактировать свои сообщения
  •